Unfriended [2015] FullHD 1080p [Ing-Lat]

TV, Peliculas y series | Más de 1 mes
0
0
0


Unfriended [2015]  FullHD 1080p  [Ing-Lat]

Título original: Unfriended
Año: 2015
Duración: 82 min.
País: United States
Director: Levan Gabriadze
Guion: Nelson Greaves
Productora: Blumhouse Productions / Bazelevs Production. Distribuida por Universal
Género: Terror. Thriller
Sinopsis : Mientras están chateando una noche, seis amigos reciben por Skype un mensaje de Laura Barns, una joven estudiante que se había suicidado un año antes tras ser humillada en Internet por un video sexual en el que aparecía borracha una noche. Al principio los amigos piensan que es una broma, pero cuando la persona con la que chatean comienza a revelar sus secretos más íntimos, se dan cuenta de que el asunto es grave.
https://www.imdb.com/title/tt3713166
Trailer
https://youtu.be/YVA3AiEQDCA


Cita:


General
Unique ID : 238534560478494918231728795723905779799 (0xB37415D4E394A714B4E04FEFB8364857)
Format : Matroska
Format version : Version 4 / Version 2
File size : 6.67 GiB
Duration : 1 h 22 min
Overall bit rate : 11.6 Mb/s
Encoded date : UTC 2017-09-24 09:29:56
Writing application : mkvmerge v9.9.0 ('Pick Up') 64bit
Writing library : libebml v1.3.4 + libmatroska v1.4.5
Video
ID : 1
Format : AVC
Format/Info : Advanced Video Codec
Format profile : High@L4.1
Format settings, CABAC : Yes
Format settings, ReFrames : 4 frames
Codec ID : V_MPEG4/ISO/AVC
Duration : 1 h 22 min
Bit rate : 9 846 kb/s
Width : 1 920 pixels
Height : 1 080 pixels
Display aspect ratio : 16:9
Frame rate mode : Constant
Frame rate : 23.976 FPS
Color space : YUV
Chroma subsampling : 4:2:0
Bit depth : 8 bits
Scan type : Progressive
Bits/(Pixel*Frame) : 0.198
Stream size : 5.69 GiB (85%)
Writing library : x264 core 146 r2538 121396c
Language : English
Default : Yes
Forced : No
Audio #1
ID : 2
Format : E-AC-3
Format/Info : Enhanced Audio Coding 3
Format settings, Endianness : Big
Codec ID : A_EAC3
Duration : 1 h 22 min
Bit rate mode : Constant
Bit rate : 192 kb/s
Channel(s) : 6 channels
Channel positions : Front: L C R, Side: L R, LFE
Sampling rate : 48.0 kHz
Frame rate : 187.500 FPS (256 spf)
Compression mode : Lossy
Delay relative to video : 200 ms
Stream size : 113 MiB (2%)
Title : E-AC3 5.1 192kbps Netflix
Language : Latin
Default : Yes
Forced : No
Audio #2
ID : 3
Format : DTS
Format/Info : Digital Theater Systems
Mode : 16
Format settings, Endianness : Big
Codec ID : A_DTS
Duration : 1 h 22 min
Bit rate mode : Constant
Bit rate : 1 509 kb/s
Channel(s) : 6 channels
Channel positions : Front: L C R, Side: L R, LFE
Sampling rate : 48.0 kHz
Frame rate : 93.750 FPS (512 spf)
Bit depth : 24 bits
Compression mode : Lossy
Stream size : 892 MiB (13%)
Title : DTS 5.1 1509kbps Bluray
Language : English
Default : No
Forced : No
Text
ID : 4
Format : UTF-8
Codec ID : S_TEXT/UTF8
Codec ID/Info : UTF-8 Plain Text
Duration : 1 h 17 min
Bit rate : 80 b/s
Count of elements : 1397
Stream size : 45.7 KiB (0%)
Language : Latin
Default : Yes
Forced : No



Unfriended [2015]  FullHD 1080p  [Ing-Lat]
Unfriended [2015]  FullHD 1080p  [Ing-Lat]

Unfriended [2015]  FullHD 1080p  [Ing-Lat]
Para poder ver los links necesitas estar Registrado . O.. ya tienes cuenta? Logueate!

Puntos agregados!

0 Puntos

Votos: 0 - T! score: 0/10

19

Visitas

0

Favoritos

0

Medallas

0

Seguidores

0 Comentarios

Cargando comentarios espera un momento...
Para poder comentar necesitas estar Registrado. O.. ya tienes usuario? Logueate!
Tu comentario fue agreado correctamente