The Ottoman Lieutenant [2017] FullHD 1080p [Ing-Lat]

TV, Peliculas y series | Más de 1 mes
0
0
0


The Ottoman Lieutenant [2017]  FullHD 1080p  [Ing-Lat]

Título original: The Ottoman Lieutenant
Año: 2017
Duración: 106 Minutos
País: Estados Unidos
Director: Joseph Ruben
Reparto: Michiel Huisman, Hera Hilmar, Josh Hartnett, Ben Kingsley, Haluk Bilginer, Affif Ben Badra, Paul Barrett, Jessica Turner, Peter Hosking
Productora: Eastern Sunrise Films / Y Production
Sinopsis : Historia de amor entre una enfermera americana idealista y un oficial turco en la Primera Guerra Mundial.
https://www.imdb.com/title/tt4943322
Trailer
https://youtu.be/pq1DufiCrZ0


Cita:


Format : Matroska
Format version : Version 4 / Version 2
File size : 8.23 GiB
Duration : 1 h 50 min
Overall bit rate : 10.7 Mb/s
Encoded date : UTC 2017-09-23 00:20:33
Writing application : mkvmerge v15.0.0 ('Duel with the Devil') 64-bit
Writing library : libebml v1.3.5 + libmatroska v1.4.5
Video
ID : 1
Format : AVC
Format/Info : Advanced Video Codec
Format profile : High@L4.1
Format settings, CABAC : Yes
Format settings, ReFrames : 5 frames
Codec ID : V_MPEG4/ISO/AVC
Duration : 1 h 50 min
Bit rate : 8 380 kb/s
Width : 1 920 pixels
Height : 808 pixels
Display aspect ratio : 2.40:1
Frame rate mode : Constant
Frame rate : 23.976 (24000/1001) FPS
Color space : YUV
Chroma subsampling : 4:2:0
Bit depth : 8 bits
Scan type : Progressive
Bits/(Pixel*Frame) : 0.225
Stream size : 6.46 GiB (79%)
Forced : No
Audio #1
ID : 4
Format : DTS
Format/Info : Digital Theater Systems
Mode : 16
Format settings, Endianness : Big
Codec ID : A_DTS
Duration : 1 h 50 min
Bit rate mode : Constant
Bit rate : 768 kb/s
Channel(s) : 6 channels
Channel positions : Front: L C R, Side: L R, LFE
Sampling rate : 48.0 kHz
Frame rate : 93.750 FPS (512 spf)
Bit depth : 16 bits
Compression mode : Lossy
Stream size : 608 MiB (7%)
Language : Spanish
Default : Yes
Forced : Yes
Audio #2
ID : 2
Format : DTS
Format/Info : Digital Theater Systems
Mode : 16
Format settings, Endianness : Big
Codec ID : A_DTS
Duration : 1 h 50 min
Bit rate mode : Constant
Bit rate : 1 509 kb/s
Channel(s) : 6 channels
Channel positions : Front: L C R, Side: L R, LFE
Sampling rate : 48.0 kHz
Frame rate : 93.750 FPS (512 spf)
Bit depth : 24 bits
Compression mode : Lossy
Stream size : 1.17 GiB (14%)
Language : English
Default : No
Forced : No
Text
ID : 3
Format : PGS
Muxing mode : zlib
Codec ID : S_HDMV/PGS
Codec ID/Info : Picture based subtitle format used on BDs/HD-DVDs
Duration : 1 h 49 min
Bit rate : 25.0 kb/s
Count of elements : 1444
Stream size : 19.5 MiB (0%)
Language : Spanish
Default : No
Forced : No



The Ottoman Lieutenant [2017]  FullHD 1080p  [Ing-Lat]
The Ottoman Lieutenant [2017]  FullHD 1080p  [Ing-Lat]

The Ottoman Lieutenant [2017]  FullHD 1080p  [Ing-Lat]
Para poder ver los links necesitas estar Registrado . O.. ya tienes cuenta? Logueate!

Puntos agregados!

0 Puntos

Votos: 0 - T! score: 0/10

18

Visitas

0

Favoritos

0

Medallas

0

Seguidores

0 Comentarios

Cargando comentarios espera un momento...
Para poder comentar necesitas estar Registrado. O.. ya tienes usuario? Logueate!
Tu comentario fue agreado correctamente