The Bad Batch [2016] FullHD 1080p [Ing-Lat]

TV, Peliculas y series | Más de 2 meses
0
0
0


The Bad Batch [2016]  FullHD 1080p  [Ing-Lat]

Título original: The Bad Batch
Año: 2016
Duración: 119 min.
País: Estados Unidos
Director: Ana Lily Amirpour
Reparto: Suki Waterhouse, Keanu Reeves, Jason Momoa, Jim Carrey, Diego Luna, Giovanni Ribisi, Emily O'Brien, Jayda Fink, Alina Aliluykina, Cory Roberts, Rae Sunshine Lee, Yolonda Ross, Dakota Black, Ashleigh Biller, Almayvonne, Irene Guindal, Stephanie Nauli, Allison Gordon, Jayne Trcka, E.R. Ruiz
Productora: Human Stew Factory / Annapurna Pictures / Vice Films
Género: Ciencia ficción. Thriller | Distopía. Western futurista
Sinopsis: Desterrada a un páramo de indeseables, una joven trata de salir adelante entre la comunidad del desierto, asolada por las drogas, y un enclave de caníbales.
Premios
2016: Festival de Venecia: Premio Especial del Jurado
https://www.imdb.com/title/tt4334266/?ref_=nv_sr_1
Trailer
https://youtu.be/qMsfVMmYXRQ


Cita:


General
Format : Matroska
Format version : Version 4 / Version 2
File size : 8.90 GiB
Duration : 1 h 59 min
Overall bit rate : 10.7 Mb/s
Movie name : The Bad Batch (2016) 1080p
Encoded date : UTC 2017-09-25 00:41:47
Writing application : mkvmerge v15.0.0 ('Duel with the Devil') 64-bit
Writing library : libebml v1.3.5 + libmatroska v1.4.5
Video
ID : 1
Format : AVC
Format/Info : Advanced Video Codec
Format profile : High@L4.1
Format settings, CABAC : Yes
Format settings, ReFrames : 5 frames
Codec ID : V_MPEG4/ISO/AVC
Duration : 1 h 58 min
Bit rate : 9 040 kb/s
Width : 1 920 pixels
Height : 808 pixels
Display aspect ratio : 2.40:1
Frame rate mode : Constant
Frame rate : 23.976 (24000/1001) FPS
Color space : YUV
Chroma subsampling : 4:2:0
Bit depth : 8 bits
Scan type : Progressive
Bits/(Pixel*Frame) : 0.243
Stream size : 7.49 GiB (84%)
Title : The Bad Batch (2016) 1080p
Writing library : x264 core 152 r2851 ba24899
Language : English
Default : Yes
Forced : No
Audio #1
ID : 2
Format : E-AC-3
Format/Info : Enhanced Audio Coding 3
Format settings, Endianness : Big
Codec ID : A_EAC3
Duration : 1 h 59 min
Bit rate mode : Constant
Bit rate : 192 kb/s
Channel(s) : 6 channels
Channel positions : Front: L C R, Side: L R, LFE
Sampling rate : 48.0 kHz
Frame rate : 187.500 FPS (256 spf)
Compression mode : Lossy
Delay relative to video : 24 ms
Stream size : 163 MiB (2%)
Title : E-AC3 5.1 Capt
Language : Spanish
Default : Yes
Forced : No
Audio #2
ID : 3
Format : DTS
Format/Info : Digital Theater Systems
Mode : 16
Format settings, Endianness : Big
Codec ID : A_DTS
Duration : 1 h 58 min
Bit rate mode : Constant
Bit rate : 1 509 kb/s
Channel(s) : 6 channels
Channel positions : Front: L C R, Side: L R, LFE
Sampling rate : 48.0 kHz
Frame rate : 93.750 FPS (512 spf)
Bit depth : 24 bits
Compression mode : Lossy
Stream size : 1.25 GiB (14%)
Title : DTS
Language : English
Default : No
Forced : No
Text #1
ID : 4
Format : UTF-8
Codec ID : S_TEXT/UTF8
Codec ID/Info : UTF-8 Plain Text
Duration : 1 h 42 min
Bit rate : 0 b/s
Count of elements : 24
Stream size : 680 Bytes (0%)
Title : Subtit_Forz
Language : Spanish
Default : Yes
Forced : No
Text #2
ID : 5
Format : UTF-8
Codec ID : S_TEXT/UTF8
Codec ID/Info : UTF-8 Plain Text
Duration : 1 h 50 min
Bit rate : 14 b/s
Count of elements : 515
Stream size : 12.1 KiB (0%)
Title : Subtit_Compl
Language : Spanish
Default : No
Forced : No



The Bad Batch [2016]  FullHD 1080p  [Ing-Lat]
The Bad Batch [2016]  FullHD 1080p  [Ing-Lat]

The Bad Batch [2016]  FullHD 1080p  [Ing-Lat]
Para poder ver los links necesitas estar Registrado . O.. ya tienes cuenta? Logueate!

Puntos agregados!

0 Puntos

Votos: 0 - T! score: 0/10

19

Visitas

0

Favoritos

0

Medallas

0

Seguidores

0 Comentarios

Cargando comentarios espera un momento...
Para poder comentar necesitas estar Registrado. O.. ya tienes usuario? Logueate!
Tu comentario fue agreado correctamente