School of Rock [2003] FullHD 1080p [Ing-Lat]

TV, Peliculas y series | Más de 1 mes
0
0
0


School of Rock [2003]  FullHD 1080p  [Ing-Lat]

Título original: School of Rock
Año: 2003
Duración: 108 min.
País: Estados Unidos
Director: Richard Linklaterv
Reparto: Jack Black, Joan Cusack, Mike White, Sarah Silverman, Joey Gaydos, Miranda Cosgrove, Maryam Hassan, Kevin Alexander Clark, Rebecca Brown, Robert Tsai, Caitlin Hale, Aleisha Allen, Brian Falduto, Zachary Infante, James Hosey, Angelo Massagli, Cole Hawkins, Veronica Afflerbach
Productora: Paramount Pictures
Género: Comedia | Colegios & Universidad. Cine familiar. Música
Sinopsis: Dewey Finn (Jack Black), un guitarrista con delirios de grandeza, es expulsado de su banda. La falta de recursos económicos lo obliga a buscar trabajo, cosa nada fácil, por lo que, finalmente, decide suplantar a un profesor sustituto en una escuela privada. A los alumnos de 5º grado intentará enseñarles el "rock & roll de alto voltaje". Además, entre los niños está Yuki, un guitarrista prodigio de nueve años que puede ayudarle a ganar la competición de bandas de música y, de paso, solucionar sus problemas económicos.
Premios
2003: Círculo de Críticos de Nueva York: Nominada a Mejor actor (Jack Black)
2003: Critics Choice Awards: Nominada a mejor canción
https://www.imdb.com/title/tt0332379/?ref_=nv_sr_1
Trailer
https://youtu.be/3PsUJFEBC74


Cita:


General
Format : Matroska
Format version : Version 4 / Version 2
File size : 7.75 GiB
Duration : 1 h 49 min
Overall bit rate : 10.2 Mb/s
Movie name : School of Rock (2003) 1080p
Encoded date : UTC 2017-09-25 23:20:41
Writing application : mkvmerge v15.0.0 ('Duel with the Devil') 64-bit
Writing library : libebml v1.3.5 + libmatroska v1.4.5
Video
ID : 1
Format : AVC
Format/Info : Advanced Video Codec
Format profile : High@L4.1
Format settings, CABAC : Yes
Format settings, ReFrames : 4 frames
Codec ID : V_MPEG4/ISO/AVC
Duration : 1 h 49 min
Bit rate : 8 000 kb/s
Width : 1 920 pixels
Height : 1 080 pixels
Display aspect ratio : 16:9
Frame rate mode : Constant
Frame rate : 23.976 (24000/1001) FPS
Color space : YUV
Chroma subsampling : 4:2:0
Bit depth : 8 bits
Scan type : Progressive
Bits/(Pixel*Frame) : 0.161
Stream size : 6.11 GiB (79%)
Title : School of Rock (2003) 1080p
Writing library : x264 core 148 r2708 86b7198
Language : English
Default : Yes
Forced : No
Color range : Limited
Color primaries : BT.709
Transfer characteristics : BT.709
Matrix coefficients : BT.709
Audio #1
ID : 2
Format : AC-3
Format/Info : Audio Coding 3
Mode extension : CM (complete main)
Format settings, Endianness : Big
Codec ID : A_AC3
Duration : 1 h 49 min
Bit rate mode : Constant
Bit rate : 640 kb/s
Channel(s) : 6 channels
Channel positions : Front: L C R, Side: L R, LFE
Sampling rate : 48.0 kHz
Frame rate : 31.250 FPS (1536 spf)
Bit depth : 16 bits
Compression mode : Lossy
Stream size : 500 MiB (6%)
Title : AC3 5.1 Bluray
Language : Spanish
Default : Yes
Forced : No
Audio #2
ID : 3
Format : DTS
Format/Info : Digital Theater Systems
Mode : 16
Format settings, Endianness : Big
Codec ID : A_DTS
Duration : 1 h 49 min
Bit rate mode : Constant
Bit rate : 1 509 kb/s
Channel(s) : 6 channels
Channel positions : Front: L C R, Side: L R, LFE
Sampling rate : 48.0 kHz
Frame rate : 93.750 FPS (512 spf)
Bit depth : 24 bits
Compression mode : Lossy
Stream size : 1.15 GiB (15%)
Title : DTS
Language : English
Default : No
Forced : No
Text #1
ID : 4
Format : UTF-8
Codec ID : S_TEXT/UTF8
Codec ID/Info : UTF-8 Plain Text
Duration : 1 h 26 min
Bit rate : 8 b/s
Count of elements : 132
Stream size : 5.52 KiB (0%)
Title : Subtit_Forz
Language : Spanish
Default : Yes
Forced : No
Text #2
ID : 5
Format : UTF-8
Codec ID : S_TEXT/UTF8
Codec ID/Info : UTF-8 Plain Text
Duration : 1 h 48 min
Bit rate : 72 b/s
Count of elements : 1595
Stream size : 57.7 KiB (0%)
Title : Subtit_Compl
Language : Spanish
Default : No
Forced : No



School of Rock [2003]  FullHD 1080p  [Ing-Lat]
School of Rock [2003]  FullHD 1080p  [Ing-Lat]

School of Rock [2003]  FullHD 1080p  [Ing-Lat]
Para poder ver los links necesitas estar Registrado . O.. ya tienes cuenta? Logueate!

Puntos agregados!

0 Puntos

Votos: 0 - T! score: 0/10

16

Visitas

0

Favoritos

0

Medallas

0

Seguidores

0 Comentarios

Cargando comentarios espera un momento...
Para poder comentar necesitas estar Registrado. O.. ya tienes usuario? Logueate!
Tu comentario fue agreado correctamente