King Arthur Legend of the Sword [2017] FullHD 1080p [Ing-L

TV, Peliculas y series | Más de 1 mes
0
0
0


King Arthur Legend of the Sword [2017]  FullHD 1080p  [Ing-L

Título original: King Arthur: Legend of the Sword
Año: 2017
Duración: 120 min.
País: Estados Unidos
Director: Guy Ritchie
Reparto: Charlie Hunnam, Jude Law, Eric Bana, Hermione Corfield, Astrid Bergès-Frisbey, Djimon Hounsou, Geoff Bell, Aidan Gillen, Michael McElhatton, Annabelle Wallis, Mikael Persbrandt, Kingsley Ben-Adir, Freddie Fox, Craig McGinlay, Tom Wu, David Beckham, Neil Maskell, Bleu Landau, Rob Knighton, Tom Metcalfe, Daniel Harland, Peter Stacey, Nigel Murfitt, Chris Marchant
Productora: Warner Bros. / Village Roadshow Pictures / Weed Road Pictures
Género: Fantástico. Acción | Edad Media. Capa y espada. Espada y brujería
Sinopsis: Arturo es un joven intrépido que dirige a su pandilla por los callejones de Londonium. Tras sacar la espada de Excalibur, se verá obligado a tomar algunas duras decisiones. Junto a una misteriosa mujer llamada Guinevere, deberá aprender a manejar la espada, vencer a sus demonios y unir al pueblo para derrotar al tirano Vortigern, quien robó su corona y asesinó a sus padres antes de convertirse en rey.
http://www.imdb.com/title/tt1972591/?ref_=nv_sr_1
Trailer
https://youtu.be/gL0ZmoeDNe8


Cita:


General

Format : Matroska
Format version : Version 4 / Version 2
File size : 9.13 GiB
Duration : 2 h 6 min
Overall bit rate : 10.4 Mb/s
Movie name : King Arthur: Legend of the Sword (2017) 1080p BDRip Dual Audio Latino-Inglés
Encoded date : UTC 2017-07-26 03:06:18
Writing application : mkvmerge v9.9.0 ('Pick Up') 64bit
Writing library : libebml v1.3.4 + libmatroska v1.4.5

Video
ID : 1
Format : AVC
Format/Info : Advanced Video Codec
Format profile : High@L4.1
Format settings, CABAC : Yes
Format settings, ReFrames : 5 frames
Codec ID : V_MPEG4/ISO/AVC
Duration : 2 h 6 min
Bit rate : 9 269 kb/s
Width : 1 920 pixels
Height : 800 pixels
Display aspect ratio : 2.40:1
Frame rate mode : Constant
Frame rate : 23.976 (24000/1001) FPS
Color space : YUV
Chroma subsampling : 4:2:0
Bit depth : 8 bits
Scan type : Progressive
Bits/(Pixel*Frame) : 0.252
Stream size : 8.17 GiB (89%)
Title : King Arthur: Legend of the Sword (2017) 1080p BDRip Dual Audio Latino-Inglés
Writing library : x264 core 152 r2851 ba24899
Language : English
Default : Yes
Forced : No

Audio #1
ID : 2
Format : AC-3
Format/Info : Audio Coding 3
Mode extension : CM (complete main)
Format settings, Endianness : Big
Codec ID : A_AC3
Duration : 2 h 6 min
Bit rate mode : Constant
Bit rate : 448 kb/s
Channel(s) : 6 channels
Channel positions : Front: L C R, Side: L R, LFE
Sampling rate : 48.0 kHz
Frame rate : 31.250 FPS (1536 spf)
Bit depth : 16 bits
Compression mode : Lossy
Stream size : 404 MiB (4%)
Title : AC3 5.1 Bluray
Language : Spanish
Default : Yes
Forced : No

Audio #2
ID : 3
Format : AC-3
Format/Info : Audio Coding 3
Mode extension : CM (complete main)
Format settings, Endianness : Big
Codec ID : A_AC3
Duration : 2 h 6 min
Bit rate mode : Constant
Bit rate : 640 kb/s
Channel(s) : 6 channels
Channel positions : Front: L C R, Side: L R, LFE
Sampling rate : 48.0 kHz
Frame rate : 31.250 FPS (1536 spf)
Bit depth : 16 bits
Compression mode : Lossy
Stream size : 578 MiB (6%)
Title : AC3 5.1
Language : English
Default : No
Forced : No

Text
ID : 4
Format : UTF-8
Codec ID : S_TEXT/UTF8
Codec ID/Info : UTF-8 Plain Text
Duration : 1 h 57 min
Bit rate : 40 b/s
Count of elements : 1264
Stream size : 34.7 KiB (0%)
Title : Subtitulos_Completos
Language : Spanish
Default : No
Forced : No



King Arthur Legend of the Sword [2017]  FullHD 1080p  [Ing-L
King Arthur Legend of the Sword [2017]  FullHD 1080p  [Ing-L

King Arthur Legend of the Sword [2017]  FullHD 1080p  [Ing-L
Para poder ver los links necesitas estar Registrado . O.. ya tienes cuenta? Logueate!

Puntos agregados!

0 Puntos

Votos: 0 - T! score: 0/10

16

Visitas

0

Favoritos

0

Medallas

0

Seguidores

0 Comentarios

Cargando comentarios espera un momento...
Para poder comentar necesitas estar Registrado. O.. ya tienes usuario? Logueate!
Tu comentario fue agreado correctamente