Dumbo [1941] FullHD 1080p [Ing-Lat]

TV, Peliculas y series | Más de 1 mes
0
0
0


Dumbo [1941]  FullHD 1080p  [Ing-Lat]

Título original: Dumbo
Año: 1941
Duración: 64 min.
País: Estados Unidos
Director: Ben Sharpsteen
Guión: Joe Grant, Dick Huemer
Música: Oliver Wallace & Frank Churchill
Fotografía: Animation
Reparto: Animation
Productora: Walt Disney
Género: Animación. Musical. Comedia. Infantil | Circo. Cine familiar
Sinopsis : Las cigüeñas llegan, como todos los años, hasta un pintoresco circo para repartir los bebés a sus respectivas mamás. La señora Dumbo, una elefanta, descubre que su bebé tiene unas orejas enormes; todas sus compañeras se ríen de él, pero la señora Dumbo lo defiende siempre, hasta el punto de ser encerrada por enfrentarse a todo aquel que se mofe de su retoño. El pequeño Dumbo, maltratado y ridiculizado por todos sus compañeros, sólo cuenta con la ayuda de un minúsculo ratoncito llamado Timothy, que decide hacer de él una estrella del circo.
http://www.imdb.com/title/tt0033563/
Trailer
https://youtu.be/22v-1eMIl40


Cita:


General
Complete name : Dumbo (1941) 1080p.mkv
Format : Matroska
Format version : Version 4 / Version 2
File size : 4.13 GiB
Duration : 1h 3mn
Overall bit rate : 9 252 Kbps
Movie name : Dumbo (1941) 1080p
Encoded date : UTC 2014-05-07 22:50:14
Writing application : mkvmerge v6.8.0 ('Theme for Great Cities') 64bit built on Mar 2 2014 21:34:26
Writing library : libebml v1.3.0 + libmatroska v1.4.1
Video
ID : 1
Format : AVC
Format/Info : Advanced Video Codec
Format profile : High@L4.1
Format settings, CABAC : Yes
Format settings, ReFrames : 4 frames
Codec ID : V_MPEG4/ISO/AVC
Duration : 1h 3mn
Bit rate : 6 777 Kbps
Width : 1 424 pixels
Height : 1 072 pixels
Display aspect ratio : 4:3
Frame rate mode : Constant
Frame rate : 23.976 fps
Color space : YUV
Chroma subsampling : 4:2:0
Bit depth : 8 bits
Scan type : Progressive
Bits/(Pixel*Frame) : 0.185
Stream size : 2.95 GiB (71%)
Title : Dumbo (1941) 1080p
Writing library : x264 core 85 r1442 781d300
Language : English
Default : Yes
Forced : No
Audio #1
ID : 2
Format : AC-3
Format/Info : Audio Coding 3
Mode extension : CM (complete main)
Format settings, Endianness : Big
Codec ID : A_AC3
Duration : 1h 3mn
Bit rate mode : Constant
Bit rate : 320 Kbps
Channel(s) : 6 channels
Channel positions : Front: L C R, Side: L R, LFE
Sampling rate : 44.1 KHz
Bit depth : 16 bits
Compression mode : Lossy
Stream size : 146 MiB (3%)
Title : Dumbo (1941) - Latin AC3 5.1
Language : Spanish
Default : Yes
Forced : No
Audio #2
ID : 3
Format : AC-3
Format/Info : Audio Coding 3
Mode extension : CM (complete main)
Format settings, Endianness : Big
Codec ID : A_AC3
Duration : 1h 3mn
Bit rate mode : Constant
Bit rate : 640 Kbps
Channel(s) : 6 channels
Channel positions : Front: L C R, Side: L R, LFE
Sampling rate : 48.0 KHz
Bit depth : 16 bits
Compression mode : Lossy
Stream size : 293 MiB (7%)
Title : Dumbo (1941) - AC3 5.1
Language : English
Default : No
Forced : No
Audio #3
ID : 4
Format : DTS
Format/Info : Digital Theater Systems
Mode : 16
Format settings, Endianness : Big
Codec ID : A_DTS
Duration : 1h 3mn
Bit rate mode : Constant
Bit rate : 1 509 Kbps
Channel(s) : 6 channels
Channel positions : Front: L C R, Side: L R, LFE
Sampling rate : 48.0 KHz
Bit depth : 24 bits
Compression mode : Lossy
Stream size : 690 MiB (16%)
Title : Dumbo (1941) - DTS 5.1
Language : English
Default : No
Forced : No
Text
ID : 5
Format : UTF-8
Codec ID : S_TEXT/UTF8
Codec ID/Info : UTF-8 Plain Text
Title : Dumbo (1941) - Subt
Language : Spanish
Default : No
Forced : No



Dumbo [1941]  FullHD 1080p  [Ing-Lat]
Dumbo [1941]  FullHD 1080p  [Ing-Lat]

Dumbo [1941]  FullHD 1080p  [Ing-Lat]
Para poder ver los links necesitas estar Registrado . O.. ya tienes cuenta? Logueate!

Puntos agregados!

0 Puntos

Votos: 0 - T! score: 0/10

14

Visitas

0

Favoritos

0

Medallas

0

Seguidores

0 Comentarios

Cargando comentarios espera un momento...
Para poder comentar necesitas estar Registrado. O.. ya tienes usuario? Logueate!
Tu comentario fue agreado correctamente