Close Encounters of the Third Kind [1977] FullHD 1080p [In

TV, Peliculas y series | Más de 1 mes
0
0
0


Close Encounters of the Third Kind [1977]  FullHD 1080p  [In

Título original: Close Encounters of the Third Kind
Título Latino: Encuentros cercanos del tercer tipo
Año: 1977
Duración: 132 min.
País: Estados Unidos
Director: Steven Spielberg
Guión: Steven Spielberg
Música: John Williams
Fotografía: Vilmos Zsigmond
Reparto: Richard Dreyfuss, Teri Garr, Melinda Dillon, François Truffaut, Cary Guffey, Bob Balaban, J. Patrick McNamara, Shawn Bishop, Lance Henriksen
Productora: Columbia Pictures / EMI Films
Género: Ciencia ficción. Fantástico | Remake. Extraterrestres
Premios:
1978: BAFTA: Diseño de prod./Dirección artística. 8 nominaciones incluyendo Película
1977: 2 Oscar: Fotografía, Edición sonora (especial). 7 nominaciones incluyendo Director
1977: 4 nominaciones al Globo de Oro: Drama, Director, Guión, Música
1977: Premios David di Donatello: Mejor film extranjero
1977: Círculo de críticos de Nueva York: 2 Nominaciones
Sinopsis: Una noche, cerca de su casa, en Indiana, Roy Neary (Richard Dreyfuss) observa en el cielo unos misteriosos objetos voladores. Desde entonces vive tan obsesionado por comprender lo que ha visto que se distancia de su esposa (Teri Garr). Encuentra apoyo en Jillian Guiler (Melinda Dillon), una mujer que también ha sido testigo de los mismos hechos. Juntos intentan encontrar una respuesta al misterio que ha alterado sus vidas. Al mismo tiempo, un nutrido grupo de científicos internacionales, bajo la dirección de Claude Lacombe (François Truffaut), empieza a investigar las apariciones de OVNIS y otros extraños fenómenos.
http://www.imdb.com/title/tt0075860/
Trailer
https://youtu.be/3Dacfll4bVU


Cita:


General
Complete name : Close Encounters of the Third Kind (1977) 1080p.mkv
Format : Matroska
Format version : Version 4 / Version 2
File size : 12.5 GiB
Duration : 2h 17mn
Overall bit rate mode : Variable
Overall bit rate : 13.0 Mbps
Movie name : Close Encounters of the Third Kind (1977) 1080p
Encoded date : UTC 2014-10-31 13:21:10
Writing application : mkvmerge v7.1.0 ('Good Love') 64bit built on Jul 27 2014 13:06:55
Writing library : libebml v1.3.0 + libmatroska v1.4.1
Video
ID : 1
Format : AVC
Format/Info : Advanced Video Codec
Format profile : High@L4.1
Format settings, CABAC : Yes
Format settings, ReFrames : 3 frames
Codec ID : V_MPEG4/ISO/AVC
Duration : 2h 17mn
Nominal bit rate : 8 500 Kbps
Width : 1 920 pixels
Height : 816 pixels
Display aspect ratio : 2.35:1
Frame rate mode : Constant
Frame rate : 23.976 fps
Color space : YUV
Chroma subsampling : 4:2:0
Bit depth : 8 bits
Scan type : Progressive
Bits/(Pixel*Frame) : 0.226
Title : Close Encounters of the Third Kind (1977) 1080p
Writing library : x264 core 130 r2273 b3065e6
Language : English
Default : Yes
Forced : No
Color primaries : BT.709
Transfer characteristics : BT.709
Matrix coefficients : BT.709
Audio #1
ID : 2
Format : AC-3
Format/Info : Audio Coding 3
Format profile : Dolby Digital
Mode extension : CM (complete main)
Format settings, Endianness : Big
Codec ID : A_AC3
Duration : 2h 17mn
Bit rate mode : Constant
Bit rate : 192 Kbps
Channel(s) : 2 channels
Channel positions : Front: L R
Sampling rate : 48.0 KHz
Bit depth : 16 bits
Compression mode : Lossy
Stream size : 188 MiB (1%)
Title : Close Encounters of the Third Kind (1977) - Latin AC3 2.0 - 192 Kbps (DVD)
Language : Spanish
Default : Yes
Forced : No
Audio #2
ID : 3
Format : AC-3
Format/Info : Audio Coding 3
Mode extension : CM (complete main)
Format settings, Endianness : Big
Codec ID : A_AC3
Duration : 2h 17mn
Bit rate mode : Constant
Bit rate : 640 Kbps
Channel(s) : 6 channels
Channel positions : Front: L C R, Side: L R, LFE
Sampling rate : 48.0 KHz
Bit depth : 16 bits
Compression mode : Lossy
Stream size : 628 MiB (5%)
Title : Close Encounters of the Third Kind (1977) - AC3 5.1 - 640 Kbps
Language : English
Default : No
Forced : No
Audio #3
ID : 4
Format : DTS
Format/Info : Digital Theater Systems
Format profile : MA / Core
Mode : 16
Format settings, Endianness : Big
Codec ID : A_DTS
Duration : 2h 17mn
Bit rate mode : Variable
Bit rate : Unknown / 1 509 Kbps
Channel(s) : 6 channels
Channel positions : Front: L C R, Side: L R, LFE
Sampling rate : 48.0 KHz
Bit depth : 24 bits
Compression mode : Lossless / Lossy
Title : Close Encounters of the Third Kind (1977) - DTS MA 5.1 - 3743 Kbps
Language : English
Default : No
Forced : No
Text
ID : 5
Format : UTF-8
Codec ID : S_TEXT/UTF8
Codec ID/Info : UTF-8 Plain Text
Title : Close Encounters of the Third Kind (1977) - Subt
Language : Spanish
Default : No
Forced : No



Close Encounters of the Third Kind [1977]  FullHD 1080p  [In
Close Encounters of the Third Kind [1977]  FullHD 1080p  [In

Close Encounters of the Third Kind [1977]  FullHD 1080p  [In
Para poder ver los links necesitas estar Registrado . O.. ya tienes cuenta? Logueate!

Puntos agregados!

0 Puntos

Votos: 0 - T! score: 0/10

14

Visitas

0

Favoritos

0

Medallas

0

Seguidores

0 Comentarios

Cargando comentarios espera un momento...
Para poder comentar necesitas estar Registrado. O.. ya tienes usuario? Logueate!
Tu comentario fue agreado correctamente