Captain Underpants The First Epic Movie [2017] FullHD 1080p

TV, Peliculas y series | Más de 2 meses
0
0
0


Captain Underpants The First Epic Movie [2017]  FullHD 1080p

Título original: Captain Underpants: The First Epic Movie
Año: 2017
Duración: 89 min.
País: Estados Unidos
Director: David Soren
Reparto: Animation
Productora: DreamWorks Animation / Scholastic Productions
Género: Animación. Comedia. Infantil | Superhéroes. 3-D
Sinopsis: Dos escolares traviesos hipnotizan al director del colegio para convertirlo en su héroe de cómic: Capitán Calzoncillos. Jorge y Berto son super buenos amigos y pasan sus días creando cómics y soñando con bromas. Un día, hipnotizan accidentalmente al 'dire' de su escuela, el Sr. Krupp, que a partir de entonces se cree que es el Capitán Calzoncillos, un súperhéroe malhumorado cuyo traje consiste en ropa interior y una capa. Por si esto no fuera suficientemente malo, su nuevo maestro es un malvado científico maldito dispuesto a exigir su venganza en la escuela. Jorge, Berto y el Capitán Calzoncillos deberán entonces unirse para frustrar su malvado plan.
https://www.imdb.com/title/tt2091256
Trailer
https://youtu.be/Ctt-zJh4Nko


Cita:


General
Format : Matroska
Format version : Version 4 / Version 2
File size : 4.65 GiB
Duration : 1 h 28 min
Overall bit rate : 7 505 kb/s
Movie name : Captain Underpants: The First Epic Movie (2017) 1080p
Encoded date : UTC 2017-08-25 20:44:05
Writing application : mkvmerge v9.9.0 ('Pick Up') 64bit
Writing library : libebml v1.3.4 + libmatroska v1.4.5
Video
ID : 1
Format : AVC
Format/Info : Advanced Video Codec
Format profile : High@L4.1
Format settings, CABAC : Yes
Format settings, ReFrames : 4 frames
Codec ID : V_MPEG4/ISO/AVC
Duration : 1 h 28 min
Bit rate : 5 546 kb/s
Width : 1 920 pixels
Height : 1 040 pixels
Display aspect ratio : 1.85:1
Frame rate mode : Constant
Frame rate : 23.976 FPS
Color space : YUV
Chroma subsampling : 4:2:0
Bit depth : 8 bits
Scan type : Progressive
Bits/(Pixel*Frame) : 0.116
Stream size : 3.43 GiB (74%)
Title : Captain Underpants: The First Epic Movie (2017) 1080p
Writing library : x264 core 150 r2833 df79067
Language : English
Default : Yes
Forced : No
Audio #1
ID : 2
Format : AC-3
Format/Info : Audio Coding 3
Mode extension : CM (complete main)
Format settings, Endianness : Big
Codec ID : A_AC3
Duration : 1 h 28 min
Bit rate mode : Constant
Bit rate : 448 kb/s
Channel(s) : 6 channels
Channel positions : Front: L C R, Side: L R, LFE
Sampling rate : 48.0 kHz
Frame rate : 31.250 FPS (1536 spf)
Bit depth : 16 bits
Compression mode : Lossy
Stream size : 284 MiB (6%)
Title : AC3 5.1 Bluray
Language : Spanish
Default : Yes
Forced : No
Audio #2
ID : 3
Format : DTS
Format/Info : Digital Theater Systems
Format profile : ES Matrix / Core
Mode : 16
Format settings, Endianness : Big
Codec ID : A_DTS
Duration : 1 h 28 min
Bit rate mode : Constant
Bit rate : 1 509 kb/s
Channel(s) : 7 channels / 6 channels
Channel positions : Front: L C R, Side: L R, Back: C, LFE / Front: L C R, Side: L R, LFE
Sampling rate : 48.0 kHz
Frame rate : 93.750 FPS (512 spf)
Bit depth : 24 bits
Compression mode : Lossy
Stream size : 957 MiB (20%)
Title : DTS
Language : English
Default : No
Forced : No
Text #1
ID : 4
Format : UTF-8
Codec ID : S_TEXT/UTF8
Codec ID/Info : UTF-8 Plain Text
Duration : 1 h 20 min
Bit rate : 0 b/s
Count of elements : 10
Stream size : 232 Bytes (0%)
Title : Subtit_Forz
Language : Spanish
Default : Yes
Forced : No
Text #2
ID : 5
Format : UTF-8
Codec ID : S_TEXT/UTF8
Codec ID/Info : UTF-8 Plain Text
Duration : 1 h 20 min
Bit rate : 77 b/s
Count of elements : 1461
Stream size : 46.2 KiB (0%)
Title : Subt_Compl
Language : Spanish
Default : No
Forced : No



Captain Underpants The First Epic Movie [2017]  FullHD 1080p
Captain Underpants The First Epic Movie [2017]  FullHD 1080p

Captain Underpants The First Epic Movie [2017]  FullHD 1080p
Para poder ver los links necesitas estar Registrado . O.. ya tienes cuenta? Logueate!

Puntos agregados!

0 Puntos

Votos: 0 - T! score: 0/10

23

Visitas

0

Favoritos

0

Medallas

0

Seguidores

0 Comentarios

Cargando comentarios espera un momento...
Para poder comentar necesitas estar Registrado. O.. ya tienes usuario? Logueate!
Tu comentario fue agreado correctamente