As Young as You Feel [1951] FullHD 1080p [Ing]

TV, Peliculas y series | Más de 1 mes
0
0
0


As Young as You Feel [1951]  FullHD 1080p  [Ing]

Título original: As Young as You Feel
Año: 1951
Duración: 77 min.
País: Estados Unidos Estados Unidos
Director: Harmon Jones
Guion: Lamar Trotti (Historia: Paddy Chayefsky)
Música: Cyril J. Mockridge
Fotografía: Joseph MacDonald (B&W)
Reparto: Monty Woolley, Thelma Ritter, David Wayne, David Wayne, Constance Bennett, Marilyn Monroe, Allyn Joslyn, Albert Dekker, Clinton Sundberg, Minor Watson, Wally Brown, Russ Tamblyn
Productora: Twentieth Century Fox Film
Sinopsis: Cuando la empresa en la que trabaja decide jubilarlo, John Hodges sufre una auténtica conmoción, pues a sus 65 años cree que todavia puede ser util. Además, en su casa nadie se preocupa por él; por otra parte, las tradicionales actividades de las personas de su edad no le gustan. Así las cosas, decide hacerse pasar por Harold Cleveland, un directivo de su empresa, y emprender un viaje de inspección para realizar cambios en una filial. Los problemas surgen cuando la ex-mujer de su jefe empieza a sentirse atraida por él.
https://www.imdb.com/title/tt0043299
Trailer
https://youtu.be/DsQgTOBcWNY


Cita:


General
Complete name : As Young as You Feel (1951) 1080p.mkv
Format : Matroska
Format version : Version 4 / Version 2
File size : 7.99 GiB
Duration : 1 h 16 min
Overall bit rate mode : Variable
Overall bit rate : 14.9 Mb/s
Encoded date : UTC 2017-09-25 16:50:59
Writing application : mkvmerge v9.9.0 ('Pick Up') 64bit
Writing library : libebml v1.3.4 + libmatroska v1.4.5
Video
ID : 1
Format : AVC
Format/Info : Advanced Video Codec
Format profile : High@L4
Format settings, CABAC : Yes
Format settings, ReFrames : 4 frames
Codec ID : V_MPEG4/ISO/AVC
Duration : 1 h 16 min
Bit rate mode : Variable
Bit rate : 14.8 Mb/s
Maximum bit rate : 15.0 Mb/s
Width : 1 440 pixels
Height : 1 080 pixels
Display aspect ratio : 4:3
Frame rate mode : Constant
Frame rate : 23.976 (24000/1001) FPS
Color space : YUV
Chroma subsampling : 4:2:0
Bit depth : 8 bits
Scan type : Progressive
Bits/(Pixel*Frame) : 0.396
Stream size : 7.92 GiB (99%)
Writing library : x264 core 148 r2623 d5b2374
Language : English
Default : Yes
Forced : No
Color range : Limited
Color primaries : BT.709
Transfer characteristics : BT.709
Matrix coefficients : BT.709
Audio
ID : 2
Format : AAC
Format/Info : Advanced Audio Codec
Format profile : LC
Codec ID : A_AAC
Duration : 1 h 16 min
Bit rate : 125 kb/s
Channel(s) : 2 channels
Channel positions : Front: L R
Sampling rate : 48.0 kHz
Frame rate : 46.875 FPS (1024 spf)
Compression mode : Lossy
Stream size : 68.9 MiB (1%)
Language : English
Default : Yes
Forced : No
Text
ID : 3
Format : UTF-8
Codec ID : S_TEXT/UTF8
Codec ID/Info : UTF-8 Plain Text
Duration : 1 h 15 min
Bit rate : 89 b/s
Count of elements : 1149
Stream size : 49.3 KiB (0%)
Language : Spanish
Default : Yes
Forced : Yes



As Young as You Feel [1951]  FullHD 1080p  [Ing]
As Young as You Feel [1951]  FullHD 1080p  [Ing]

As Young as You Feel [1951]  FullHD 1080p  [Ing]
Para poder ver los links necesitas estar Registrado . O.. ya tienes cuenta? Logueate!

Puntos agregados!

0 Puntos

Votos: 0 - T! score: 0/10

16

Visitas

0

Favoritos

0

Medallas

0

Seguidores

0 Comentarios

Cargando comentarios espera un momento...
Para poder comentar necesitas estar Registrado. O.. ya tienes usuario? Logueate!
Tu comentario fue agreado correctamente