X-Men Days of Future Past [2014] 3D H-SBS 1080p [Ing-Lat]

TV, Peliculas y series | Más de 1 mes
0
0
0


X-Men Days of Future Past [2014] 3D H-SBS 1080p [Ing-Lat]

Titulo original: X-Men: Days of Future Past
Ano: 2014
Duracion: 130 min.
Pais: Estados Unidos
Director: Bryan Singer
Guion: Simon Kinberg (Historia: Simon Kinberg, Matthew Vaughn, Jane Goldman)
Musica: John Ottman
Fotografia: Newton Thomas Sigel
Reparto: Hugh Jackman, James McAvoy, Michael Fassbender, Jennifer Lawrence, Nicholas Hoult, Ian McKellen, Patrick Stewart, Ellen Page, Shawn Ashmore, Omar Sy, Peter Dinklage, Evan Peters, Halle Berry, Lucas Till, Daniel Cudmore, Booboo Stewart, Bingbing Fan, Adan Canto, Josh Helman, Larry Day, Amelia Giovanni, Gregg Lowe, Evan Jonigkeit, Mark Camacho, Laurence Belcher, Morgan Lily, Famke Janssen, Anna Paquin, James Marsden, Kelsey Grammer, Brendan Pedder
Productora: 20th Century Fox / Marvel / Bad Hat Harry Productions
Genero: Ciencia ficcion. Fantastico. Accion | Superheroes. Comic. Marvel Comics. Secuela. Viajes en el tiempo
Sinopsis: En X-MEN: DIAS DEL FUTURO PASADO, los X-Men luchan por la supervivencia de la especie en una guerra que se desarrolla en epocas diferentes. Los personajes de la trilogia cinematografica original de �X-Men� unen sus fuerzas a las que ellos mismos poseian en el pasado, cuando eran mas jovenes �tal y como aparecen en �X-Men: Primera generacion��, para cambiar un importante acontecimiento historico y librar una epica batalla que podria salvar nuestro futuro.
https://www.imdb.com/title/tt1877832/
Trailer
https://youtu.be/pK2zYHWDZKo


Cita:


General
Format : Matroska
Format version : Version 4 / Version 2
File size : 14.4 GiB
Duration : 2h 11mn
Overall bit rate : 15.7 Mbps
Encoded date : UTC 2014-10-03 01:39:36
Writing application : mkvmerge v7.1.0 (Good Love) 64bit built on Jul 27 2014 13:06:55
Writing library : libebml v1.3.0 + libmatroska v1.4.1
Video
ID : 1
Format : AVC
Format/Info : Advanced Video Codec
Format profile : High@L4.1
Format settings, CABAC : Yes
Format settings, ReFrames : 2 frames
Codec ID : V_MPEG4/ISO/AVC
Duration : 2h 11mn
Bit rate : 12.8 Mbps
Width : 1 920 pixels
Height : 800 pixels
Display aspect ratio : 2.40:1
Frame rate mode : Constant
Frame rate : 23.976 fps
Color space : YUV
Chroma subsampling : 4:2:0
Bit depth : 8 bits
Scan type : Progressive
Bits/(Pixel*Frame) : 0.347
Stream size : 11.7 GiB (81%)
Writing library : x264 core
Language : English
Default : Yes
Forced : No
Color primaries : BT.709
Transfer characteristics : BT.709
Matrix coefficients : BT.709
Audio #1
ID : 2
Format : AC-3
Format/Info : Audio Coding 3
Mode extension : CM (complete main)
Format settings, Endianness : Big
Codec ID : A_AC3
Duration : 2h 11mn
Bit rate mode : Constant
Bit rate : 448 Kbps
Channel(s) : 6 channels
Channel positions : Front: L C R, Side: L R, LFE
Sampling rate : 48.0 KHz
Bit depth : 16 bits
Compression mode : Lossy
Stream size : 422 MiB (3%)
Title : AC3 5.1 [BluRay]
Language : Spanish
Default : Yes
Forced : No
Audio #2
ID : 3
Format : AC-3
Format/Info : Audio Coding 3
Mode extension : CM (complete main)
Format settings, Endianness : Big
Codec ID : A_AC3
Duration : 2h 11mn
Bit rate mode : Constant
Bit rate : 640 Kbps
Channel(s) : 6 channels
Channel positions : Front: L C R, Side: L R, LFE
Sampling rate : 48.0 KHz
Bit depth : 16 bits
Compression mode : Lossy
Stream size : 602 MiB (4%)
Title : AC3 5.1
Language : English
Default : No
Forced : No
Audio #3
ID : 4
Format : DTS
Format/Info : Digital Theater Systems
Format profile : ES
Mode : 16
Format settings, Endianness : Big
Codec ID : A_DTS
Duration : 2h 11mn
Bit rate mode : Constant
Bit rate : 1 509 Kbps
Channel(s) : 6 channels
Channel positions : Front: L C R, Side: L R, LFE
Sampling rate : 48.0 KHz
Bit depth : 24 bits
Compression mode : Lossy
Stream size : 1.39 GiB (10%)
Title : DTS 5.1
Language : English
Default : No
Forced : No
Text #1
ID : 5
Format : VobSub
Muxing mode : zlib
Codec ID : S_VOBSUB
Codec ID/Info : The same subtitle format used on DVDs
Title : Forz
Language : Latin
Default : Yes
Forced : No
Text #2
ID : 6
Format : VobSub
Muxing mode : zlib
Codec ID : S_VOBSUB
Codec ID/Info : The same subtitle format used on DVDs
Title : Complet
Language : Latin
Default : No
Forced : No



X-Men Days of Future Past [2014] 3D H-SBS 1080p [Ing-Lat]
X-Men Days of Future Past [2014] 3D H-SBS 1080p [Ing-Lat]
X-Men Days of Future Past [2014] 3D H-SBS 1080p [Ing-Lat]
X-Men Days of Future Past [2014] 3D H-SBS 1080p [Ing-Lat]

X-Men Days of Future Past [2014] 3D H-SBS 1080p [Ing-Lat]
Buy Premium Account To Get High Speed Download
Para poder ver los links necesitas estar Registrado . O.. ya tienes cuenta? Logueate!

Puntos agregados!

0 Puntos

Votos: 0 - T! score: 0/10

24

Visitas

0

Favoritos

0

Medallas

0

Seguidores

0 Comentarios

Cargando comentarios espera un momento...
Para poder comentar necesitas estar Registrado. O.. ya tienes usuario? Logueate!
Tu comentario fue agreado correctamente