Warcraft [2016] 3D H-SBS 1080p [Ing-Lat]

TV, Peliculas y series | Más de 1 mes
0
0
0


Warcraft [2016] 3D H-SBS 1080p [Ing-Lat]

Titulo original: Warcraft: The Beginning
Ano: 2016
Duracion: 123 min.
Pais: Estados Unidos
Director: Duncan Jones
Reparto: Travis Fimmel, Paula Patton, Ben Foster, Dominic Cooper, Toby Kebbell, Ben Schnetzer, Robert Kazinsky, Clancy Brown, Daniel Wu, Ruth Negga, Anna Galvin, Callum Keith, Burkely Duffield, Ryan Robbins, Dean Redman, Glenn Ennis, Terry Notary, Elena Wurlitzer, Michael Adamthwaite, Anna Van Hooft, Callan Mulvey
Productora: Universal Pictures / Legendary Pictures / Blizzard Entertainment
Genero: Fantastico. Aventuras | Fantasia medieval. Cine epico. Videojuego
Sinopsis: El pacifico reino de Azeroth esta a punto de entrar en guerra para enfrentarse a unos terribles invasores: orcos guerreros que han dejado su destruido mundo para colonizar otro. Al abrirse un portal que conecta ambos mundos, un ejercito se enfrenta a la destruccion, y el otro, a la extincion. Dos heroes, uno en cada bando, estan a punto de chocar en un enfrentamiento que cambiara el destino de su familia, su pueblo y su hogar. Asi empieza una espectacular saga de poder y sacrificio donde se descubren las numerosas caras de la guerra y donde cada uno lucha por lo suyo. Adaptacion del popular videojuego homonimo.
http://www.imdb.com/title/tt0803096/?ref_=nv_sr_1
Trailer
https://youtu.be/ZoX_h3lzgpI


Cita:


General
Format : Matroska
Format version : Version 4 / Version 2
File size : 17.8 GiB
Duration : 2h 3mn
Overall bit rate mode : Variable
Overall bit rate : 20.7 Mbps
Movie name : Warcraft (2016) 3D H-SBS 1080p
Encoded date : UTC 2016-09-22 04:55:43
Writing application : mkvmerge v7.1.0 (Good Love) 64bit built on Jul 27 2014 13:06:55
Writing library : libebml v1.3.0 + libmatroska v1.4.1
Video
ID : 1
Format : AVC
Format/Info : Advanced Video Codec
Format profile : High@L4.1
Format settings, CABAC : Yes
Format settings, ReFrames : 2 frames
Codec ID : V_MPEG4/ISO/AVC
Duration : 2h 3mn
Nominal bit rate : 15.5 Mbps
Width : 1 920 pixels
Height : 1 080 pixels
Display aspect ratio : 16:9
Frame rate mode : Constant
Frame rate : 23.976 fps
Color space : YUV
Chroma subsampling : 4:2:0
Bit depth : 8 bits
Scan type : Progressive
Bits/(Pixel*Frame) : 0.312
Title : Warcraft (2016) 3D H-SBS 1080p
Language : English
Default : Yes
Forced : No
Audio #1
ID : 2
Format : AC-3
Format/Info : Audio Coding 3
Mode extension : CM (complete main)
Format settings, Endianness : Big
Codec ID : A_AC3
Duration : 2h 3mn
Bit rate mode : Constant
Bit rate : 640 Kbps
Channel(s) : 6 channels
Channel positions : Front: L C R, Side: L R, LFE
Sampling rate : 48.0 KHz
Bit depth : 16 bits
Compression mode : Lossy
Stream size : 564 MiB (3%)
Title : AC3 5.1 Bluray
Language : Spanish
Default : Yes
Forced : No
Audio #2
ID : 3
Format : DTS
Format/Info : Digital Theater Systems
Format profile : MA / Core
Mode : 16
Format settings, Endianness : Big
Codec ID : A_DTS
Duration : 2h 3mn
Bit rate mode : Variable
Bit rate : Unknown / 1 509 Kbps
Channel(s) : 8 channels / 6 channels
Channel positions : Front: L C R, Side: L R, Back: L R, LFE / Front: L C R, Side: L R, LFE
Sampling rate : 48.0 KHz
Bit depth : 24 bits
Compression mode : Lossless / Lossy
Title : DTS
Language : English
Default : No
Forced : No
Audio #3
ID : 4
Format : AC-3
Format/Info : Audio Coding 3
Mode extension : CM (complete main)
Format settings, Endianness : Big
Codec ID : A_AC3
Duration : 2h 3mn
Bit rate mode : Constant
Bit rate : 640 Kbps
Channel(s) : 6 channels
Channel positions : Front: L C R, Side: L R, LFE
Sampling rate : 48.0 KHz
Bit depth : 16 bits
Compression mode : Lossy
Stream size : 564 MiB (3%)
Title : AC3 5.1
Language : English
Default : No
Forced : No
Text #1
ID : 5
Format : UTF-8
Codec ID : S_TEXT/UTF8
Codec ID/Info : UTF-8 Plain Text
Title : Subt_Forz
Language : Spanish
Default : Yes
Forced : No
Text #2
ID : 6
Format : UTF-8
Codec ID : S_TEXT/UTF8
Codec ID/Info : UTF-8 Plain Text
Title : Subt_Complet
Language : Spanish
Default : No
Forced : No



Warcraft [2016] 3D H-SBS 1080p [Ing-Lat]
Warcraft [2016] 3D H-SBS 1080p [Ing-Lat]
Warcraft [2016] 3D H-SBS 1080p [Ing-Lat]

Warcraft [2016] 3D H-SBS 1080p [Ing-Lat]
Buy Premium Account To Get High Speed Download
Para poder ver los links necesitas estar Registrado . O.. ya tienes cuenta? Logueate!

Puntos agregados!

0 Puntos

Votos: 0 - T! score: 0/10

18

Visitas

0

Favoritos

0

Medallas

0

Seguidores

0 Comentarios

Cargando comentarios espera un momento...
Para poder comentar necesitas estar Registrado. O.. ya tienes usuario? Logueate!
Tu comentario fue agreado correctamente