The Walk [2015] 3D H-SBS 1080p [Ing-Lat]

TV, Peliculas y series | Más de 2 meses
0
0
0


The Walk [2015] 3D H-SBS 1080p [Ing-Lat]

Titulo original: The Walk
Ano: 2015
Duracion: 124 min.
Pais: Estados Unidos
Director: Robert Zemeckis
Guion: Christopher Browne, Robert Zemeckis (Libro: Philippe Petit)
Musica: Alan Silvestri
Fotografia: Dariusz Wolski
Reparto: Joseph Gordon-Levitt, Ben Kingsley, Charlotte Le Bon, James Badge Dale, Cesar Domboy, Clement Sibony, Benedict Samuel, Vittorio Rossi, Ben Schwartz, Steve Valentine, Mark Camacho
Productora: ImageMovers / Sony Pictures Entertainment / TriStar Productions
Genero: Drama | Basado en hechos reales. Anos 70. 3-D
Sinopsis: Basada en las memorias escritas por Philippe Petit (Joseph Gordon-Levitt), un funambulista frances que en 1974 camino sobre un cable el espacio que separaba las Torres Gemelas de Nueva York.
https://www.imdb.com/title/tt3488710/
Trailer
https://youtu.be/DA3Kt5KwxEo


Cita:


General
Format : Matroska
Format version : Version 4 / Version 2
File size : 9.85 GiB
Duration : 2h 3mn
Overall bit rate : 11.4 Mbps
Encoded date : UTC 2015-12-24 23:10:37
Writing application : mkvmerge v7.1.0 (Good Love) 64bit built on Jul 27 2014 13:06:55
Writing library : libebml v1.3.0 + libmatroska v1.4.1
Video
ID : 1
Format : AVC
Format/Info : Advanced Video Codec
Format profile : High@L4.1
Format settings, CABAC : Yes
Format settings, ReFrames : 5 frames
Codec ID : V_MPEG4/ISO/AVC
Duration : 2h 3mn
Bit rate : 8 659 Kbps
Width : 1 920 pixels
Height : 800 pixels
Display aspect ratio : 2.40:1
Frame rate mode : Constant
Frame rate : 23.976 fps
Color space : YUV
Chroma subsampling : 4:2:0
Bit depth : 8 bits
Scan type : Progressive
Bits/(Pixel*Frame) : 0.235
Stream size : 7.25 GiB (74%)
Writing library : x264 core 148 r2638 7599210
Language : English
Default : Yes
Forced : No
Audio #1
ID : 2
Format : AC-3
Format/Info : Audio Coding 3
Mode extension : CM (complete main)
Format settings, Endianness : Big
Codec ID : A_AC3
Duration : 2h 3mn
Bit rate mode : Constant
Bit rate : 640 Kbps
Channel(s) : 6 channels
Channel positions : Front: L C R, Side: L R, LFE
Sampling rate : 48.0 KHz
Bit depth : 16 bits
Compression mode : Lossy
Stream size : 564 MiB (6%)
Title : AC3 5.1
Language : Spanish
Default : Yes
Forced : No
Audio #2
ID : 3
Format : AC-3
Format/Info : Audio Coding 3
Mode extension : CM (complete main)
Format settings, Endianness : Big
Codec ID : A_AC3
Duration : 2h 3mn
Bit rate mode : Constant
Bit rate : 640 Kbps
Channel(s) : 6 channels
Channel positions : Front: L C R, Side: L R, LFE
Sampling rate : 48.0 KHz
Bit depth : 16 bits
Compression mode : Lossy
Stream size : 564 MiB (6%)
Title : AC3 5.1
Language : English
Default : No
Forced : No
Audio #3
ID : 4
Format : DTS
Format/Info : Digital Theater Systems
Mode : 16
Format settings, Endianness : Big
Codec ID : A_DTS
Duration : 2h 3mn
Bit rate mode : Constant
Bit rate : 1 509 Kbps
Channel(s) : 6 channels
Channel positions : Front: L C R, Side: L R, LFE
Sampling rate : 48.0 KHz
Bit depth : 24 bits
Compression mode : Lossy
Stream size : 1.30 GiB (13%)
Title : DTS 5.1
Language : English
Default : No
Forced : No
Text
ID : 5
Format : UTF-8
Codec ID : S_TEXT/UTF8
Codec ID/Info : UTF-8 Plain Text
Language : Spanish
Default : No
Forced : No



The Walk [2015] 3D H-SBS 1080p [Ing-Lat]
The Walk [2015] 3D H-SBS 1080p [Ing-Lat]
The Walk [2015] 3D H-SBS 1080p [Ing-Lat]
The Walk [2015] 3D H-SBS 1080p [Ing-Lat]

The Walk [2015] 3D H-SBS 1080p [Ing-Lat]
Buy Premium Account To Get High Speed Download
Para poder ver los links necesitas estar Registrado . O.. ya tienes cuenta? Logueate!

Puntos agregados!

0 Puntos

Votos: 0 - T! score: 0/10

24

Visitas

0

Favoritos

0

Medallas

0

Seguidores

0 Comentarios

Cargando comentarios espera un momento...
Para poder comentar necesitas estar Registrado. O.. ya tienes usuario? Logueate!
Tu comentario fue agreado correctamente