San Andreas [2015] 3D H-SBS 1080p [Ing-Lat]

TV, Peliculas y series | Más de 2 meses
0
0
0


San Andreas [2015] 3D H-SBS 1080p [Ing-Lat]

Titulo original: San Andreas
Ano: 2015
Duracion: 114 min.
Pais: Estados Unidos
Director: Brad Peyton
Guion: Carlton Cuse (Historia: Andre Fabrizio, Jeremy Passmore)
Musica: Andrew Lockington
Fotografia: Steve Yedlin
Reparto: Dwayne "The Rock" Johnson, Alexandra Daddario, Carla Gugino, Paul Giamatti, Hugo Johnstone-Burt, Art Parkinson, Ioan Gruffudd, Will Yun Lee, Todd Williams, Natalie Stephany Aguilar, Kylie Minogue, Archie Panjabi, Colton Haynes, Simone Kessell, Marissa Neitling, Morgan Griffin
Productora: Warner Bros. / Village Roadshow Pictures / New Line Cinema
Genero: Accion. Aventuras | Catastrofes. Terremotos. 3-D
Sinopsis: La falla de San Andres acaba cediendo ante las temibles fuerzas teluricas y desencadena un terremoto de magnitud 9 en California. Ante tal catastrofe, el piloto de helicoptero de busqueda y rescate Ray (Dwayne Johnson) y su ex esposa Emma (Carla Gugino) viajan juntos desde Los Angeles hasta San Francisco para salvar a su unica hija, Blake (Alexandra Daddario). Pero su tortuoso viaje hacia el norte solamente es el comienzo del desomoronamiento de todo lo que creian firme en su vida.
https://www.imdb.com/title/tt2126355/
Trailer
https://youtu.be/6yWdnkAzFlY


Cita:


General
Format : Matroska
Format version : Version 4 / Version 2
File size : 7.96 GiB
Duration : 1h 54mn
Overall bit rate : 9 953 Kbps
Encoded date : UTC 2015-10-05 21:55:11
Writing application : mkvmerge v7.1.0 (Good Love) 64bit built on Jul 27 2014 13:06:55
Writing library : libebml v1.3.0 + libmatroska v1.4.1
Video
ID : 1
Format : AVC
Format/Info : Advanced Video Codec
Format profile : High@L4.1
Format settings, CABAC : Yes
Format settings, ReFrames : 5 frames
Codec ID : V_MPEG4/ISO/AVC
Duration : 1h 54mn
Bit rate : 8 928 Kbps
Width : 1 920 pixels
Height : 800 pixels
Display aspect ratio : 2.40:1
Frame rate mode : Constant
Frame rate : 23.976 fps
Color space : YUV
Chroma subsampling : 4:2:0
Bit depth : 8 bits
Scan type : Progressive
Bits/(Pixel*Frame) : 0.242
Stream size : 6.98 GiB (88%)
Writing library : x264 core 148 r2597 e86f3a1
Language : English
Default : Yes
Forced : No
Audio #1
ID : 2
Format : AC-3
Format/Info : Audio Coding 3
Mode extension : CM (complete main)
Format settings, Endianness : Big
Codec ID : A_AC3
Duration : 1h 54mn
Bit rate mode : Constant
Bit rate : 384 Kbps
Channel(s) : 6 channels
Channel positions : Front: L C R, Side: L R, LFE
Sampling rate : 48.0 KHz
Bit depth : 16 bits
Compression mode : Lossy
Stream size : 314 MiB (4%)
Title : AC3 5.1 DVD
Language : Spanish
Default : Yes
Forced : No
Audio #2
ID : 3
Format : AC-3
Format/Info : Audio Coding 3
Mode extension : CM (complete main)
Format settings, Endianness : Big
Codec ID : A_AC3
Duration : 1h 54mn
Bit rate mode : Constant
Bit rate : 640 Kbps
Channel(s) : 6 channels
Channel positions : Front: L C R, Side: L R, LFE
Sampling rate : 48.0 KHz
Bit depth : 16 bits
Compression mode : Lossy
Stream size : 524 MiB (6%)
Title : AC3 5.1
Language : English
Default : No
Forced : No
Text #1
ID : 4
Format : UTF-8
Codec ID : S_TEXT/UTF8
Codec ID/Info : UTF-8 Plain Text
Title : Forz
Language : Spanish
Default : Yes
Forced : No
Text #2
ID : 5
Format : UTF-8
Codec ID : S_TEXT/UTF8
Codec ID/Info : UTF-8 Plain Text
Title : Complet
Language : Spanish
Default : No
Forced : No



San Andreas [2015] 3D H-SBS 1080p [Ing-Lat]
San Andreas [2015] 3D H-SBS 1080p [Ing-Lat]
San Andreas [2015] 3D H-SBS 1080p [Ing-Lat]
San Andreas [2015] 3D H-SBS 1080p [Ing-Lat]

San Andreas [2015] 3D H-SBS 1080p [Ing-Lat]
Buy Premium Account To Get High Speed Download
Para poder ver los links necesitas estar Registrado . O.. ya tienes cuenta? Logueate!

Puntos agregados!

0 Puntos

Votos: 0 - T! score: 0/10

30

Visitas

0

Favoritos

0

Medallas

0

Seguidores

0 Comentarios

Cargando comentarios espera un momento...
Para poder comentar necesitas estar Registrado. O.. ya tienes usuario? Logueate!
Tu comentario fue agreado correctamente