Home [2015] 3D H-SBS 1080p [Ing-Lat]

TV, Peliculas y series | Hace 8 días
0
0
0

Home [2015] 3D H-SBS 1080p [Ing-Lat]

Titulo original: Home
Ano: 2015
Duracion: 94 min.
Pais: Estados Unidos
Director: Tim Johnson
Guion: Tom J. Astle, Matt Ember (Libro: Adam Rex)
Musica: Lorne Balfe
Fotografia: Animation
Reparto: Animation
Productora: DreamWorks Animation
Genero: Animacion. Comedia. Infantil. Ciencia ficcion | Extraterrestres. 3-D
Sinopsis: Cuando el alienigena mas irritantemente optimista de la galaxia se encuentra huyendo de su propia raza, se vera forzado a formar equipo con una chica adolescente muy testaruda. Estos extranos fugitivos acabaran salvando el planeta. Adaptacion del popular libro "The True Meaning of Smekday", de Adam Rex. Voces originales: Jim Parsons, Rihanna, Jennifer Lopez y Steve Martin.
https://www.imdb.com/title/tt2224026/
Trailer
https://www.youtube.com/watch?v=_i6MgUgZPig


Cita:


General
Format : Matroska
Format version : Version 4 / Version 2
File size : 9.56 GiB
Duration : 1h 33mn
Overall bit rate : 14.6 Mbps
Encoded date : UTC 2015-07-18 13:56:13
Writing application : mkvmerge v7.1.0 (Good Love) 64bit built on Jul 27 2014 13:06:55
Writing library : libebml v1.3.0 + libmatroska v1.4.1
Video
ID : 1
Format : AVC
Format/Info : Advanced Video Codec
Format profile : High@L4.1
Format settings, CABAC : Yes
Format settings, ReFrames : 5 frames
Codec ID : V_MPEG4/ISO/AVC
Duration : 1h 33mn
Bit rate : 12.0 Mbps
Width : 1 920 pixels
Height : 1 080 pixels
Display aspect ratio : 16:9
Frame rate mode : Constant
Frame rate : 23.976 fps
Color space : YUV
Chroma subsampling : 4:2:0
Bit depth : 8 bits
Scan type : Progressive
Bits/(Pixel*Frame) : 0.241
Stream size : 7.67 GiB (80%)
Writing library : x264 core 146 r2538 121396c
Language : English
Default : Yes
Forced : No
Audio #1
ID : 2
Format : AC-3
Format/Info : Audio Coding 3
Mode extension : CM (complete main)
Format settings, Endianness : Big
Codec ID : A_AC3
Duration : 1h 33mn
Bit rate mode : Constant
Bit rate : 448 Kbps
Channel(s) : 6 channels
Channel positions : Front: L C R, Side: L R, LFE
Sampling rate : 48.0 KHz
Bit depth : 16 bits
Compression mode : Lossy
Stream size : 301 MiB (3%)
Title : AC3 5.1 Bluray
Language : Spanish
Default : Yes
Forced : No
Audio #2
ID : 3
Format : AC-3
Format/Info : Audio Coding 3
Mode extension : CM (complete main)
Format settings, Endianness : Big
Codec ID : A_AC3
Duration : 1h 33mn
Bit rate mode : Constant
Bit rate : 640 Kbps
Channel(s) : 6 channels
Channel positions : Front: L C R, Side: L R, LFE
Sampling rate : 48.0 KHz
Bit depth : 16 bits
Compression mode : Lossy
Stream size : 429 MiB (4%)
Title : AC3 5.1
Language : English
Default : No
Forced : No
Audio #3
ID : 4
Format : DTS
Format/Info : Digital Theater Systems
Format profile : ES
Mode : 16
Format settings, Endianness : Big
Codec ID : A_DTS
Duration : 1h 33mn
Bit rate mode : Constant
Bit rate : 1 509 Kbps
Channel(s) : 6 channels
Channel positions : Front: L C R, Side: L R, LFE
Sampling rate : 48.0 KHz
Bit depth : 24 bits
Compression mode : Lossy
Stream size : 1 012 MiB (10%)
Title : DTS 5.1
Language : English
Default : No
Forced : No
Text
ID : 5
Format : UTF-8
Codec ID : S_TEXT/UTF8
Codec ID/Info : UTF-8 Plain Text
Language : Spanish
Default : No
Forced : No



Home [2015] 3D H-SBS 1080p [Ing-Lat]
Home [2015] 3D H-SBS 1080p [Ing-Lat]
Home [2015] 3D H-SBS 1080p [Ing-Lat]
Home [2015] 3D H-SBS 1080p [Ing-Lat]

Home [2015] 3D H-SBS 1080p [Ing-Lat]
Buy Premium Account To Get High Speed Download
Para poder ver los links necesitas estar Registrado . O.. ya tienes cuenta? Logueate!

Puntos agregados!

0 Puntos

Votos: 0 - T! score: 0/10

6

Visitas

0

Favoritos

0

Medallas

0

Seguidores

0 Comentarios

Cargando comentarios espera un momento...
Para poder comentar necesitas estar Registrado. O.. ya tienes usuario? Logueate!
Tu comentario fue agreado correctamente