Gods of Egypt [2016] 3D H-SBS 1080p [Ing-Lat]

TV, Peliculas y series | Hace 9 días
0
0
0

Gods of Egypt [2016] 3D H-SBS 1080p [Ing-Lat]

Titulo original: Gods of Egypt
Ano: 2016
Duracion: 127 min.
Pais: Estados Unidos
Director: Alex Proyas
Reparto: Gerard Butler, Nikolaj Coster-Waldau, Geoffrey Rush, Brenton Thwaites, Courtney Eaton, Chadwick Boseman, Elodie Yung, Bruce Spence, Bryan Brown, Emma Booth, Rachael Blake, Robyn Nevin, Goran D. Kleut, Abbey Lee, Paula Arundell
Productora: Summit Entertainment / Mystery Clock Cinema
Genero: Fantastico. Accion. Aventuras | Antiguo Egipto. Mitologia. Cine epico
Sinopsis: La supervivencia de la humanidad pende de un hilo al tiempo que un inesperado heroe mortal llamado Bek emprende un viaje para salvar el mundo y rescatar a su verdadero amor. Para tener exito, debera contar con la ayuda del poderoso Dios, Horus, formando una improbable alianza contra Set, el despiadado Dios de la oscuridad que ha usurpado el trono de Egipto, sumiendo al en su dia prospero y pacifico imperio en el caos. Mientras su batalla contra Set y sus secuaces les lleva al Mas Alla a traves de los cielos, el Dios y el mortal deberan pasar pruebas de valentia y sacrificio si quieren tener esperanzas de prevalecer cuando llegue la confrontacion final.
https://www.imdb.com/title/tt2404233/
Trailer
https://youtu.be/2qJtkAPQPuM


Cita:


General
Format : Matroska
Format version : Version 4 / Version 2
File size : 19.3 GiB
Duration : 2h 7mn
Overall bit rate mode : Variable
Overall bit rate : 21.7 Mbps
Movie name : Gods of Egypt (2016) 3D H-SBS 1080p
Encoded date : UTC 2016-05-27 15:14:20
Writing application : mkvmerge v8.3.0 (Over the Horizon) 64bit
Writing library : libebml v1.3.1 + libmatroska v1.4.2
Video
ID : 1
Format : AVC
Format/Info : Advanced Video Codec
Format profile : High@L4.1
Format settings, CABAC : Yes
Format settings, ReFrames : 2 frames
Codec ID : V_MPEG4/ISO/AVC
Duration : 2h 7mn
Nominal bit rate : 15.5 Mbps
Width : 1 920 pixels
Height : 1 080 pixels
Display aspect ratio : 16:9
Frame rate mode : Constant
Frame rate : 23.976 fps
Color space : YUV
Chroma subsampling : 4:2:0
Bit depth : 8 bits
Scan type : Progressive
Bits/(Pixel*Frame) : 0.312
Title : Gods of Egypt (2016) 3D H-SBS 1080p
Language : English
Default : Yes
Forced : No
Audio #1
ID : 2
Format : DTS
Format/Info : Digital Theater Systems
Mode : 16
Format settings, Endianness : Big
Codec ID : A_DTS
Duration : 2h 7mn
Bit rate mode : Constant
Bit rate : 755 Kbps
Channel(s) : 6 channels
Channel positions : Front: L C R, Side: L R, LFE
Sampling rate : 48.0 KHz
Bit depth : 24 bits
Compression mode : Lossy
Stream size : 686 MiB (3%)
Title : DTS Bluray
Language : Spanish
Default : Yes
Forced : No
Audio #2
ID : 3
Format : AC-3
Format/Info : Audio Coding 3
Mode extension : CM (complete main)
Format settings, Endianness : Big
Codec ID : A_AC3
Duration : 2h 7mn
Bit rate mode : Constant
Bit rate : 640 Kbps
Channel(s) : 6 channels
Channel positions : Front: L C R, Side: L R, LFE
Sampling rate : 48.0 KHz
Bit depth : 16 bits
Compression mode : Lossy
Stream size : 582 MiB (3%)
Title : AC3 5.1 del DTS
Language : Spanish
Default : No
Forced : No
Audio #3
ID : 4
Format : DTS
Format/Info : Digital Theater Systems
Format profile : MA / Core
Mode : 16
Format settings, Endianness : Big
Codec ID : A_DTS
Duration : 2h 7mn
Bit rate mode : Variable
Bit rate : Unknown / 1 509 Kbps
Channel(s) : 8 channels / 6 channels
Channel positions : Front: L C R, Side: L R, Back: L R, LFE / Front: L C R, Side: L R, LFE
Sampling rate : 48.0 KHz
Bit depth : 24 bits
Compression mode : Lossless / Lossy
Title : DTS-HD MA
Language : English
Default : No
Forced : No
Audio #4
ID : 5
Format : AC-3
Format/Info : Audio Coding 3
Mode extension : CM (complete main)
Format settings, Endianness : Big
Codec ID : A_AC3
Duration : 2h 7mn
Bit rate mode : Constant
Bit rate : 640 Kbps
Channel(s) : 6 channels
Channel positions : Front: L C R, Side: L R, LFE
Sampling rate : 48.0 KHz
Bit depth : 16 bits
Compression mode : Lossy
Stream size : 582 MiB (3%)
Title : AC3
Language : English
Default : No
Forced : No
Text
ID : 6
Format : UTF-8
Codec ID : S_TEXT/UTF8
Codec ID/Info : UTF-8 Plain Text
Title : Subt_Complet
Language : Spanish
Default : No
Forced : No



Gods of Egypt [2016] 3D H-SBS 1080p [Ing-Lat]
Gods of Egypt [2016] 3D H-SBS 1080p [Ing-Lat]
Gods of Egypt [2016] 3D H-SBS 1080p [Ing-Lat]
Gods of Egypt [2016] 3D H-SBS 1080p [Ing-Lat]

Gods of Egypt [2016] 3D H-SBS 1080p [Ing-Lat]
Buy Premium Account To Get High Speed Download
Para poder ver los links necesitas estar Registrado . O.. ya tienes cuenta? Logueate!

Puntos agregados!

0 Puntos

Votos: 0 - T! score: 0/10

10

Visitas

0

Favoritos

0

Medallas

0

Seguidores

0 Comentarios

Cargando comentarios espera un momento...
Para poder comentar necesitas estar Registrado. O.. ya tienes usuario? Logueate!
Tu comentario fue agreado correctamente