Frankenweenie [2012] 3D H-SBS 1080p [Ing-Lat]

TV, Peliculas y series | Más de 2 meses
0
0
0


Frankenweenie [2012] 3D H-SBS 1080p [Ing-Lat]

TITULO ORIGINAL: Frankenweenie
ANO: 2012
DURACION: 87 min.
PAIS: USA
DIRECTOR: Tim Burton
GUION: John August (Historia: Tim Burton, Leonard Ripps)
REPARTO: Animation
PRODUCTORA: Walt Disney Pictures / Tim Burton Animation Co. / Tim Burton Productions
GENERO: Animacion. Ciencia ficcion. Comedia. Terror | Comedia de terror. Stop Motion. Perros/Lobos. Monstruos. Remake
https://www.imdb.com/title/tt1142977/
PREMIOS: 2012: Circulo de Criticos de Nueva York: Mejor pelicula de animacion
2012: Premios Annie: 5 nominaciones, incluyendo mejor pelicula
2012: Globos de Oro: Nominada a Mejor pelicula de animacion
2012: Asociacion de Criticos de Los Angeles: Mejor pelicula de animacion
2012: Asociacion de Boston: Mejor pelicula de animacion
2012: Satellite Awards: Nominado a Mejor largometraje de animacion
Sinopsis: Pelicula basada en el cortometraje homonimo que el propio Burton realizo' en 1984. El experimento cientifico que lleva a cabo el pequeno Victor para hacer resucitar su adorado perro Sparky, lo obligara' a afrontar terribles situaciones cuyas consecuencias son imprevisibles
Trailer
https://www.youtube.com/watch?v=tpFQyA99544


Cita:


General
Format : Matroska
Format version : Version 2
File size : 8.79 GiB
Duration : 1h 26mn
Overall bit rate : 14.5 Mbps
Encoded date : UTC 2012-12-25 17:07:43
Writing application : mkvmerge v5.7.0 ('The Whirlwind') built on Jul 8 2012 20:08:51
Writing library : libebml v1.2.3 + libmatroska v1.3.0
Video
ID : 1
Format : AVC
Format/Info : Advanced Video Codec
Format profile : High@L4.1
Format settings, CABAC : Yes
Format settings, ReFrames : 2 frames
Codec ID : V_MPEG4/ISO/AVC
Duration : 1h 26mn
Bit rate : 11.4 Mbps
Width : 1 920 pixels
Height : 1 080 pixels
Display aspect ratio : 16:9
Frame rate mode : Constant
Frame rate : 23.976 fps
Color space : YUV
Chroma subsampling : 4:2:0
Bit depth : 8 bits
Scan type : Progressive
Bits/(Pixel*Frame) : 0.229
Stream size : 6.92 GiB (79%)
Writing library : x264 core
Language : English
Default : Yes
Forced : No
Color primaries : BT.709
Transfer characteristics : BT.709
Matrix coefficients : BT.709
Audio #1
ID : 2
Format : AC-3
Format/Info : Audio Coding 3
Mode extension : CM (complete main)
Format settings, Endianness : Big
Codec ID : A_AC3
Duration : 1h 26mn
Bit rate mode : Constant
Bit rate : 640 Kbps
Channel(s) : 6 channels
Channel positions : Front: L C R, Side: L R, LFE
Sampling rate : 48.0 KHz
Bit depth : 16 bits
Compression mode : Lossy
Stream size : 398 MiB (4%)
Title : AC3 5.1
Language : Spanish
Default : Yes
Forced : No
Audio #2
ID : 3
Format : AC-3
Format/Info : Audio Coding 3
Mode extension : CM (complete main)
Format settings, Endianness : Big
Codec ID : A_AC3
Duration : 1h 26mn
Bit rate mode : Constant
Bit rate : 640 Kbps
Channel(s) : 6 channels
Channel positions : Front: L C R, Side: L R, LFE
Sampling rate : 48.0 KHz
Bit depth : 16 bits
Compression mode : Lossy
Stream size : 398 MiB (4%)
Title : AC3 5.1
Language : English
Default : No
Forced : No
Audio #3
ID : 4
Format : DTS
Format/Info : Digital Theater Systems
Mode : 16
Format settings, Endianness : Big
Codec ID : A_DTS
Duration : 1h 26mn
Bit rate mode : Constant
Bit rate : 1 509 Kbps
Channel(s) : 6 channels
Channel positions : Front: L C R, Side: L R, LFE
Sampling rate : 48.0 KHz
Bit depth : 24 bits
Compression mode : Lossy
Stream size : 938 MiB (10%)
Title : DTS 5.1
Language : English
Default : No
Forced : No
Text #1
ID : 5
Format : UTF-8
Codec ID : S_TEXT/UTF8
Codec ID/Info : UTF-8 Plain Text
Title : Forzados
Language : Spanish
Default : Yes
Forced : No
Text #2
ID : 6
Format : UTF-8
Codec ID : S_TEXT/UTF8
Codec ID/Info : UTF-8 Plain Text
Language : Spanish
Default : No
Forced : No
Text #3
ID : 7
Format : UTF-8
Codec ID : S_TEXT/UTF8
Codec ID/Info : UTF-8 Plain Text
Language : English
Default : No
Forced : No



Frankenweenie [2012] 3D H-SBS 1080p [Ing-Lat]
Frankenweenie [2012] 3D H-SBS 1080p [Ing-Lat]

Frankenweenie [2012] 3D H-SBS 1080p [Ing-Lat]
Buy Premium Account To Get High Speed Download
Para poder ver los links necesitas estar Registrado . O.. ya tienes cuenta? Logueate!

Puntos agregados!

0 Puntos

Votos: 0 - T! score: 0/10

26

Visitas

0

Favoritos

0

Medallas

0

Seguidores

0 Comentarios

Cargando comentarios espera un momento...
Para poder comentar necesitas estar Registrado. O.. ya tienes usuario? Logueate!
Tu comentario fue agreado correctamente