Captain America Civil War [2016] 3D H-SBS 1080p [Ing-Lat][Ac

TV, Peliculas y series | Hace 9 días
0
0
0

Captain America Civil War [2016] 3D H-SBS 1080p [Ing-Lat][Ac

TITULO ORIGINAL: Captain America: Civil War
ANO: 2016
DURACION: 147 min.
Pais: Estados Unidos
DIRECTOR: Anthony Russo, Joe Russo
GUION: Christopher Markus, Stephen McFeely (Comic: Mark Millar) (Personajes: Joe Simon, Jack Kirby)
MUSICA: Henry Jackman
FOTOGRAFIA: Trent Opaloch
REPARTO: Chris Evans, Robert Downey Jr., Scarlett Johansson, Sebastian Stan, Anthony Mackie, Don Cheadle, Jeremy Renner, Chadwick Boseman, Paul Bettany, Elizabeth Olsen, Paul Rudd, Emily VanCamp, Tom Holland, Daniel Bruhl, Frank Grillo, William Hurt, Martin Freeman, Marisa Tomei, John Kani, John Slattery, Alfre Woodard, Stan Lee, Heidi Moneymaker, Gene Farber, Florence Kasumba
PRODUCTORA: Marvel Studios / Marvel Entertainment / Sony Pictures Imageworks (SPI)
GENERO: Accion. Thriller. Fantastico | Superheroes. Comic. Marvel Comics. Secuela
Sinopsis: Despues de que otro incidente internacional involucre a Los Vengadores, causando varios danos colaterales, aumentan las presiones politicas para instaurar un sistema que exija mas responsabilidades y que determine cuando deben contratar los servicios del grupo de superheroes. Esta nueva situacion dividira a Los Vengadores, mientras intentan proteger al mundo de un nuevo y terrible villano. Tercera entrega de la saga Capitan America.
https://www.imdb.com/title/tt3498820/
https://www.youtube.com/watch?v=0HqkHVmS5DU

Cita:


General
Format : Matroska
Format version : Version 4 / Version 2
File size : 22.1 GiB
Duration : 2h 27mn
Overall bit rate : 21.4 Mbps
Encoded date : UTC 2016-09-06 04:12:06
Writing application : mkvmerge v8.3.0 (Over the Horizon) 64bit
Writing library : libebml v1.3.1 + libmatroska v1.4.2
Video
ID : 1
Format : AVC
Format/Info : Advanced Video Codec
Format profile : High@L4.1
Format settings, CABAC : Yes
Format settings, ReFrames : 2 frames
Format settings, GOP : M=3, N=24
Codec ID : V_MPEG4/ISO/AVC
Duration : 2h 27mn
Bit rate : 15.5 Mbps
Width : 1 920 pixels
Height : 1 080 pixels
Display aspect ratio : 16:9
Frame rate mode : Constant
Frame rate : 23.976 (24000/1001) fps
Color space : YUV
Chroma subsampling : 4:2:0
Bit depth : 8 bits
Scan type : Progressive
Bits/(Pixel*Frame) : 0.312
Stream size : 15.9 GiB (72%)
Writing library : x264 core 142
Language : English
Default : Yes
Forced : No
Color range : Limited
Color primaries : BT.709
Transfer characteristics : BT.709
Matrix coefficients : BT.709
Audio #1
ID : 2
Format : AC-3
Format/Info : Audio Coding 3
Mode extension : CM (complete main)
Format settings, Endianness : Big
Codec ID : A_AC3
Duration : 2h 27mn
Bit rate mode : Constant
Bit rate : 640 Kbps
Channel(s) : 6 channels
Channel positions : Front: L C R, Side: L R, LFE
Sampling rate : 48.0 KHz
Frame rate : 31.250 fps (1536 spf)
Compression mode : Lossy
Stream size : 676 MiB (3%)
Title : Latino
Language : Spanish
Default : Yes
Forced : No
Audio #2
ID : 3
Format : AC-3
Format/Info : Audio Coding 3
Mode extension : CM (complete main)
Format settings, Endianness : Big
Codec ID : A_AC3
Duration : 2h 27mn
Bit rate mode : Constant
Bit rate : 640 Kbps
Channel(s) : 6 channels
Channel positions : Front: L C R, Side: L R, LFE
Sampling rate : 48.0 KHz
Frame rate : 31.250 fps (1536 spf)
Compression mode : Lossy
Stream size : 676 MiB (3%)
Title : AC3
Language : English
Default : No
Forced : No
Audio #3
ID : 4
Format : DTS
Format/Info : Digital Theater Systems
Format profile : MA / Core
Mode : 16
Format settings, Endianness : Big
Codec ID : A_DTS
Duration : 2h 27mn
Bit rate mode : Variable / Constant
Bit rate : 4 699 Kbps / 1 509 Kbps
Channel(s) : 8 channels / 6 channels
Channel positions : Front: L C R, Side: L R, Back: L R, LFE / Front: L C R, Side: L R, LFE
Sampling rate : 48.0 KHz
Frame rate : 93.750 fps (512 spf)
Bit depth : 24 bits
Compression mode : Lossless / Lossy
Stream size : 4.85 GiB (22%)
Title : DTS
Language : English
Default : No
Forced : No
Text #1
ID : 5
Format : PGS
Muxing mode : zlib
Codec ID : S_HDMV/PGS
Codec ID/Info : Picture based subtitle format used on BDs/HD-DVDs
Duration : 2h 26mn
Bit rate : 218 bps
Count of elements : 136
Stream size : 234 KiB (0%)
Title : Spanish-FORZS
Language : Spanish
Default : Yes
Forced : No
Text #2
ID : 6
Format : PGS
Muxing mode : zlib
Codec ID : S_HDMV/PGS
Codec ID/Info : Picture based subtitle format used on BDs/HD-DVDs
Duration : 2h 26mn
Bit rate : 13.0 Kbps
Count of elements : 3410
Stream size : 13.6 MiB (0%)
Title : Spanish-PGS
Language : Spanish
Default : No
Forced : No



Captain America Civil War [2016] 3D H-SBS 1080p [Ing-Lat][Ac
Captain America Civil War [2016] 3D H-SBS 1080p [Ing-Lat][Ac
Captain America Civil War [2016] 3D H-SBS 1080p [Ing-Lat][Ac
Captain America Civil War [2016] 3D H-SBS 1080p [Ing-Lat][Ac

Captain America Civil War [2016] 3D H-SBS 1080p [Ing-Lat][Ac
Buy Premium Account To Get High Speed Download
Para poder ver los links necesitas estar Registrado . O.. ya tienes cuenta? Logueate!

Puntos agregados!

0 Puntos

Votos: 0 - T! score: 0/10

10

Visitas

0

Favoritos

0

Medallas

0

Seguidores

0 Comentarios

Cargando comentarios espera un momento...
Para poder comentar necesitas estar Registrado. O.. ya tienes usuario? Logueate!
Tu comentario fue agreado correctamente