A Monster In Paris [2011] 3D H-SBS 1080p [Ing-Lat]

TV, Peliculas y series | Más de 2 meses
0
0
0


A Monster In Paris [2011] 3D H-SBS 1080p [Ing-Lat]

TITULO ORIGINAL: Un monstre a Paris (A Monster In Paris)
ANO: 2012
DURACION: 82 min.
PAIS: Francia
DIRECTOR: Bibo Bergeron
GUION: Bibo Bergeron, Stephane Kazandjian
REPARTO: Animation
PRODUCTORA: Bibo Films / Europa Corp. / Walking The Dog
GENERO: Animacion. Fantastico. Comedia. Musical | Anos 1910-1919. Monstruos. 3-D
Sinopsis: Hacia 1910, en Paris, una extrana criatura tiene aterrorizada a la poblacion. Emilio y Raul, dos hombres que no tienen nada en comun y no muy predispuestos a la aventura, emprenden la caza del monstruo. Gracias a esta mision lograran encontrarse a si mismos, descubrir el amor y romper con toda clase de prejuicios, lo que les lleva a albergar dudas sobre la verdadera naturaleza de ese extrano ser.
https://www.imdb.com/title/tt0961097/
Trailer
https://youtu.be/XkkNJYhZlHA


Cita:


General
Format : Matroska
Format version : Version 2
File size : 9.18 GiB
Duration : 1h 29mn
Overall bit rate : 14.6 Mbps
Encoded date : UTC 2013-03-01 23:55:27
Writing application : mkvmerge v5.7.0 (The Whirlwind) built on Jul 8 2012 20:08:51
Writing library : libebml v1.2.3 + libmatroska v1.3.0
Video
ID : 1
Format : AVC
Format/Info : Advanced Video Codec
Format profile : High@L4.1
Format settings, CABAC : Yes
Format settings, ReFrames : 4 frames
Codec ID : V_MPEG4/ISO/AVC
Duration : 1h 29mn
Bit rate : 12.0 Mbps
Width : 1 920 pixels
Height : 1 080 pixels
Display aspect ratio : 16:9
Frame rate mode : Constant
Frame rate : 23.976 fps
Color space : YUV
Chroma subsampling : 4:2:0
Bit depth : 8 bits
Scan type : Progressive
Bits/(Pixel*Frame) : 0.241
Stream size : 7.36 GiB (80%)
Writing library : x264 core 120 r2164 da19765
Language : English
Default : Yes
Forced : No
Audio #1
ID : 2
Format : AC-3
Format/Info : Audio Coding 3
Mode extension : CM (complete main)
Format settings, Endianness : Big
Codec ID : A_AC3
Duration : 1h 29mn
Bit rate mode : Constant
Bit rate : 448 Kbps
Channel(s) : 6 channels
Channel positions : Front: L C R, Side: L R, LFE
Sampling rate : 48.0 KHz
Bit depth : 16 bits
Compression mode : Lossy
Delay relative to video : 3s 0ms
Stream size : 288 MiB (3%)
Title : AC3 5.1
Language : Spanish
Default : Yes
Forced : No
Audio #2
ID : 3
Format : AC-3
Format/Info : Audio Coding 3
Mode extension : CM (complete main)
Format settings, Endianness : Big
Codec ID : A_AC3
Duration : 1h 29mn
Bit rate mode : Constant
Bit rate : 640 Kbps
Channel(s) : 6 channels
Channel positions : Front: L C R, Side: L R, LFE
Sampling rate : 48.0 KHz
Bit depth : 16 bits
Compression mode : Lossy
Stream size : 412 MiB (4%)
Title : AC3 5.1
Language : English
Default : No
Forced : No
Audio #3
ID : 4
Format : DTS
Format/Info : Digital Theater Systems
Mode : 16
Format settings, Endianness : Big
Codec ID : A_DTS
Duration : 1h 29mn
Bit rate mode : Constant
Bit rate : 1 509 Kbps
Channel(s) : 6 channels
Channel positions : Front: L C R, Side: L R, LFE
Sampling rate : 48.0 KHz
Bit depth : 24 bits
Compression mode : Lossy
Delay relative to video : 11ms
Stream size : 971 MiB (10%)
Title : DTS 5.1
Language : English
Default : No
Forced : No
Text
ID : 5
Format : UTF-8
Codec ID : S_TEXT/UTF8
Codec ID/Info : UTF-8 Plain Text
Language : Spanish
Default : No
Forced : No



A Monster In Paris [2011] 3D H-SBS 1080p [Ing-Lat]
A Monster In Paris [2011] 3D H-SBS 1080p [Ing-Lat]
A Monster In Paris [2011] 3D H-SBS 1080p [Ing-Lat]
A Monster In Paris [2011] 3D H-SBS 1080p [Ing-Lat]

A Monster In Paris [2011] 3D H-SBS 1080p [Ing-Lat]
Buy Premium Account To Get High Speed Download
Para poder ver los links necesitas estar Registrado . O.. ya tienes cuenta? Logueate!

Puntos agregados!

0 Puntos

Votos: 0 - T! score: 0/10

22

Visitas

0

Favoritos

0

Medallas

0

Seguidores

0 Comentarios

Cargando comentarios espera un momento...
Para poder comentar necesitas estar Registrado. O.. ya tienes usuario? Logueate!
Tu comentario fue agreado correctamente