Race [2016] FullHD 1080p [Ing-Lat]

TV, Peliculas y series | Hace 17 días
0
0
0

Race [2016]  FullHD 1080p  [Ing-Lat]

Titulo original: Race
Ano: 2016
Duracion: 134 min.
Pais: Canada
Director: Stephen Hopkins
Reparto: Stephan James, Jason Sudeikis, William Hurt, Jeremy Irons, Carice van Houten, Amanda Crew, David Kross
Productora: Coproduccion Canada-Francia-Alemania; Focus Features
Genero: Drama | Biografico. Deporte. Anos 30. Juegos olimpicos. Atletismo
Sinopsis: Narra la historia del mitico atleta Jesse Owens, el coloso de la velocidad que salto a la fama en los Juegos Olimpicos de Berlin de 1936, cuando dejo al mundo boquiabierto con sus espectaculares marcas que echaron por tierra la teoria de Hitler sobre la supremacia de la raza aria.
https://www.imdb.com/title/tt3499096/
Trailer
https://youtu.be/i7axb4EAP_U


Cita:


General
Format : Matroska
Format version : Version 4 / Version 2
File size : 10.0 GiB
Duration : 2 h 14 min
Overall bit rate : 10.7 Mb/s
Movie name : Race (2016) 1080p
Encoded date : UTC 2017-06-27 22:21:12
Writing application : mkvmerge v9.9.0 (Pick Up) 64bit
Writing library : libebml v1.3.4 + libmatroska v1.4.5
Video
ID : 1
Format : AVC
Format/Info : Advanced Video Codec
Format profile : High@L4.1
Format settings, CABAC : Yes
Format settings, ReFrames : 5 frames
Codec ID : V_MPEG4/ISO/AVC
Duration : 2 h 14 min
Bit rate : 8 967 kb/s
Width : 1 920 pixels
Height : 824 pixels
Display aspect ratio : 2.35:1
Frame rate mode : Constant
Frame rate : 23.976 FPS
Color space : YUV
Chroma subsampling : 4:2:0
Bit depth : 8 bits
Scan type : Progressive
Bits/(Pixel*Frame) : 0.236
Stream size : 8.42 GiB (84%)
Title : Race (2016) 1080p
Language : English
Default : Yes
Forced : No
Audio #1
ID : 2
Format : E-AC-3
Format/Info : Enhanced Audio Coding 3
Format settings, Endianness : Big
Codec ID : A_EAC3
Duration : 2 h 14 min
Bit rate mode : Constant
Bit rate : 192 kb/s
Channel(s) : 6 channels
Channel positions : Front: L C R, Side: L R, LFE
Sampling rate : 48.0 kHz
Frame rate : 187.500 FPS (256 spf)
Compression mode : Lossy
Stream size : 184 MiB (2%)
Title : E-AC3 5.1 Captura
Language : Spanish
Default : Yes
Forced : No
Audio #2
ID : 3
Format : DTS
Format/Info : Digital Theater Systems
Mode : 16
Format settings, Endianness : Big
Codec ID : A_DTS
Duration : 2 h 14 min
Bit rate mode : Constant
Bit rate : 1 509 kb/s
Channel(s) : 6 channels
Channel positions : Front: L C R, Side: L R, LFE
Sampling rate : 48.0 kHz
Frame rate : 93.750 FPS (512 spf)
Bit depth : 24 bits
Compression mode : Lossy
Stream size : 1.42 GiB (14%)
Title : DTS
Language : English
Default : No
Forced : No
Text #1
ID : 4
Format : UTF-8
Codec ID : S_TEXT/UTF8
Codec ID/Info : UTF-8 Plain Text
Duration : 2 h 3 min
Bit rate : 3 b/s
Count of elements : 78
Stream size : 3.16 KiB (0%)
Title : Subt_Forz
Language : Spanish
Default : Yes
Forced : No
Text #2
ID : 5
Format : UTF-8
Codec ID : S_TEXT/UTF8
Codec ID/Info : UTF-8 Plain Text
Duration : 2 h 4 min
Bit rate : 55 b/s
Count of elements : 1518
Stream size : 50.6 KiB (0%)
Title : Subt_Compl
Language : Spanish
Default : No
Forced : No



Race [2016]  FullHD 1080p  [Ing-Lat]
Race [2016]  FullHD 1080p  [Ing-Lat]
Race [2016]  FullHD 1080p  [Ing-Lat]
Race [2016]  FullHD 1080p  [Ing-Lat]

Race [2016]  FullHD 1080p  [Ing-Lat]

Para poder ver los links necesitas estar Registrado . O.. ya tienes cuenta? Logueate!

Puntos agregados!

0 Puntos

Votos: 0 - T! score: 0/10

15

Visitas

0

Favoritos

0

Medallas

0

Seguidores

0 Comentarios

Cargando comentarios espera un momento...
Para poder comentar necesitas estar Registrado. O.. ya tienes usuario? Logueate!
Tu comentario fue agreado correctamente