The Wizard Of Lies [2017] FullHD 1080p [Ing-Lat]

TV, Peliculas y series | Hace 14 días
0
0
0

The Wizard Of Lies [2017]  FullHD 1080p  [Ing-Lat]

Título original: The Wizard of Lies
Año: 2017
Duración: 133 Minutos
País: Estados Unidos
Director: Barry Levinson
Reparto: Robert De Niro, Michelle Pfeiffer, Kristen Connolly, Lily Rabe, Hank Azaria, Alessandro Nivola, Nathan Darrow, Kathrine Narducci, Michael A. Goorjian, Sophie von Haselberg, Kelly AuCoin, Michael Kostroff, Marta Milans, Reagan Grella, Geoffrey Cantor, Doris McCarthy
Productora: Home Box Office (HBO) / Tribeca Productions
Premios: 2017 Emmy: Nominada a mejor telefilm, actor (De Niro) y actriz de reparto (Pfeiffer)
Sinopsis : Narra la historia del inversor Bernie Madoff y su estafa Ponzi piramidal.
https://www.imdb.com/title/tt1933667
Trailer
https://youtu.be/cJR17aLAx0Q


Cita:


Format : Matroska
Format version : Version 4 / Version 2
File size : 10.6 GiB
Duration : 2 h 12 min
Overall bit rate : 11.4 Mb/s
Encoded date : UTC 2017-09-27 12:51:04
Writing application : mkvmerge v15.0.0 ('Duel with the Devil') 64-bit
Writing library : libebml v1.3.5 + libmatroska v1.4.5
Video
ID : 2
Format : AVC
Format/Info : Advanced Video Codec
Format profile : High@L4.1
Format settings, CABAC : Yes
Format settings, ReFrames : 4 frames
Codec ID : V_MPEG4/ISO/AVC
Duration : 2 h 12 min
Bit rate : 9 095 kb/s
Width : 1 920 pixels
Height : 1 080 pixels
Display aspect ratio : 16:9
Frame rate mode : Constant
Frame rate : 23.976 (24000/1001) FPS
Color space : YUV
Chroma subsampling : 4:2:0
Bit depth : 8 bits
Scan type : Progressive
Bits/(Pixel*Frame) : 0.183
Stream size : 8.42 GiB (80%)
Writing library : x264 core
Default : Yes
Forced : No
Audio #1
ID : 1
Format : DTS
Format/Info : Digital Theater Systems
Mode : 16
Format settings, Endianness : Big
Codec ID : A_DTS
Duration : 2 h 12 min
Bit rate mode : Constant
Bit rate : 768 kb/s
Channel(s) : 2 channels
Channel positions : Front: L R
Sampling rate : 48.0 kHz
Frame rate : 93.750 FPS (512 spf)
Bit depth : 24 bits
Compression mode : Lossy
Stream size : 729 MiB (7%)
Title : Dts latin Bluray
Language : Spanish
Default : Yes
Forced : Yes
Audio #2
ID : 3
Format : DTS
Format/Info : Digital Theater Systems
Mode : 16
Format settings, Endianness : Big
Codec ID : A_DTS
Duration : 2 h 12 min
Bit rate mode : Constant
Bit rate : 1 509 kb/s
Channel(s) : 6 channels
Channel positions : Front: L C R, Side: L R, LFE
Sampling rate : 48.0 kHz
Frame rate : 93.750 FPS (512 spf)
Bit depth : 24 bits
Compression mode : Lossy
Stream size : 1.40 GiB (13%)
Title : Dts ingles Bluray club-hd.com
Language : English
Default : No
Forced : No
Text
ID : 4
Format : PGS
Codec ID : S_HDMV/PGS
Codec ID/Info : Picture based subtitle format used on BDs/HD-DVDs
Duration : 2 h 7 min
Bit rate : 54.9 kb/s
Count of elements : 4498
Stream size : 50.2 MiB (0%)
Title : Bluray
Language : Spanish
Default : No
Forced : No



The Wizard Of Lies [2017]  FullHD 1080p  [Ing-Lat]
The Wizard Of Lies [2017]  FullHD 1080p  [Ing-Lat]

The Wizard Of Lies [2017]  FullHD 1080p  [Ing-Lat]
Para poder ver los links necesitas estar Registrado . O.. ya tienes cuenta? Logueate!

Puntos agregados!

0 Puntos

Votos: 0 - T! score: 0/10

12

Visitas

0

Favoritos

0

Medallas

0

Seguidores

0 Comentarios

Cargando comentarios espera un momento...
Para poder comentar necesitas estar Registrado. O.. ya tienes usuario? Logueate!
Tu comentario fue agreado correctamente