Stargate [1994] Director's Cut FullHD 1080p [Ing-Lat]

TV, Peliculas y series | Más de 2 meses
0
0
0


Stargate [1994] Director's Cut  FullHD 1080p  [Ing-Lat]

TÍTULO ORIGINAL: Stargate
AÑO: 1994
DURACIÓN: 121 min.
PAÍS: USA
DIRECTOR: Roland Emmerich
GUIÓN: Dean Devlin, Roland Emmerich
REPARTO: James Spader, Kurt Russell, Jaye Davidson, Viveca Lindfors, Mili Avital, Alexis Cruz, Djimon Hounsou, Richard Kind, Erick Avari, John Diehl, French Stewart, Derek Webster, Christopher John Fields, Leon Rippy, Rae Allen, Carlos Lauchu
PRODUCTORA: Metro-Goldwyn-Mayer (MGM) / United Artists
GÉNERO: Ciencia ficción. Fantástico. Aventuras. Acción | Extraterrestres
Sinopsis: Un coronel y un científico, movidos por distintos intereses, investigan el misterioso hallazgo en unas excavaciones de un extraño artefacto al que llaman "Puerta de las Estrellas". Acompañados de un equipo de reconocimiento, atraviesan la Puerta y son transportados a un lejano planeta.
https://www.imdb.com/title/tt0111282/
Trailer
https://youtu.be/kiJtZUPvJxY


Cita:


General
Format : Matroska
Format version : Version 2
File size : 10.6 GiB
Duration : 2h 9mn
Overall bit rate : 11.6 Mbps
Encoded date : UTC 2013-09-25 02:42:28
Writing application : mkvmerge v5.7.0 ('The Whirlwind') built on Jul 8 2012 20:08:51
Writing library : libebml v1.2.3 + libmatroska v1.3.0
Video
ID : 1
Format : AVC
Format/Info : Advanced Video Codec
Format profile : High@L4.1
Format settings, CABAC : Yes
Format settings, ReFrames : 4 frames
Codec ID : V_MPEG4/ISO/AVC
Duration : 2h 9mn
Bit rate : 9 246 Kbps
Width : 1 920 pixels
Height : 800 pixels
Display aspect ratio : 2.40:1
Frame rate mode : Constant
Frame rate : 23.976 fps
Color space : YUV
Chroma subsampling : 4:2:0
Bit depth : 8 bits
Scan type : Progressive
Bits/(Pixel*Frame) : 0.251
Stream size : 8.17 GiB (77%)
Writing library : x264 core 78 r1301 bcba15d
Language : English
Default : Yes
Forced : No
Audio #1
ID : 2
Format : AC-3
Format/Info : Audio Coding 3
Mode extension : CM (complete main)
Format settings, Endianness : Big
Codec ID : A_AC3
Duration : 2h 9mn
Bit rate mode : Constant
Bit rate : 256 Kbps
Channel(s) : 2 channels
Channel positions : Front: L R
Sampling rate : 48.0 KHz
Bit depth : 16 bits
Compression mode : Lossy
Stream size : 238 MiB (2%)
Title : Latin AC3 2.0
Language : Spanish
Default : Yes
Forced : No
Audio #2
ID : 3
Format : AC-3
Format/Info : Audio Coding 3
Mode extension : CM (complete main)
Format settings, Endianness : Big
Codec ID : A_AC3
Duration : 2h 9mn
Bit rate mode : Constant
Bit rate : 640 Kbps
Channel(s) : 6 channels
Channel positions : Front: L C R, Side: L R, LFE
Sampling rate : 48.0 KHz
Bit depth : 16 bits
Compression mode : Lossy
Stream size : 594 MiB (5%)
Title : Inglés AC3 5.1
Language : English
Default : No
Forced : No
Audio #3
ID : 4
Format : DTS
Format/Info : Digital Theater Systems
Mode : 16
Format settings, Endianness : Big
Codec ID : A_DTS
Duration : 2h 9mn
Bit rate mode : Constant
Bit rate : 1 509 Kbps
Channel(s) : 6 channels
Channel positions : Front: L C R, Side: L R, LFE
Sampling rate : 48.0 KHz
Bit depth : 24 bits
Compression mode : Lossy
Stream size : 1.37 GiB (13%)
Title : DTS 5.1
Language : English
Default : No
Forced : No
Text #1
ID : 5
Format : UTF-8
Codec ID : S_TEXT/UTF8
Codec ID/Info : UTF-8 Plain Text
Title : Forz
Language : Spanish
Default : Yes
Forced : No
Text #2
ID : 6
Format : UTF-8
Codec ID : S_TEXT/UTF8
Codec ID/Info : UTF-8 Plain Text
Title : Compl
Language : Spanish
Default : No
Forced : No



Stargate [1994] Director's Cut  FullHD 1080p  [Ing-Lat]
Stargate [1994] Director's Cut  FullHD 1080p  [Ing-Lat]

Stargate [1994] Director's Cut  FullHD 1080p  [Ing-Lat]
Para poder ver los links necesitas estar Registrado . O.. ya tienes cuenta? Logueate!

Puntos agregados!

0 Puntos

Votos: 0 - T! score: 0/10

39

Visitas

0

Favoritos

0

Medallas

0

Seguidores

0 Comentarios

Cargando comentarios espera un momento...
Para poder comentar necesitas estar Registrado. O.. ya tienes usuario? Logueate!
Tu comentario fue agreado correctamente