Security [2017] FullHD 1080p [Ing-Lat]

TV, Peliculas y series | Más de 2 meses
0
0
0


Security [2017]  FullHD 1080p  [Ing-Lat]

Título original: Security
Año: 2017
Duración: 87 min
País: Estados Unidos
Director: Alain Desrochers
Guión:Tony Mosher, John Sullivan
Música: FM Le Sieur
Fotografía: Anton Bakarski
Reparto: Antonio Banderas, Ben Kingsley, Liam McIntyre, Chad Lindberg, Gabriella Wright, Cung Le, Mark Rhino Smith, Bashar Rahal, Jiro Wang, Ivailo Dimitrov, Velimir Velev, Katherine de la Rocha, Lillian Blankenship, Mark Basnight
Productora:Nu Boyana Film Studios / Nu Image / Millennium Films
Género: Acción
Sinopsis: Un ex-soldado que trabaja como guardia de seguridad debe proteger a una niña de 11 años que corre un grave peligro. La muchacha ha sido testigo de un asesinato y por eso se ha convertido en el blanco de unos peligrosos delincuentes.
https://www.imdb.com/title/tt3501112
Trailer
https://youtu.be/KbKAkL-tmSY


Cita:


Format : Matroska
Format version : Version 4 / Version 2
File size : 6.68 GiB
Duration : 1 h 31 min
Overall bit rate : 10.4 Mb/s
Encoded date : UTC 2017-09-23 01:10:01
Writing application : mkvmerge v15.0.0 ('Duel with the Devil') 64-bit
Writing library : libebml v1.3.5 + libmatroska v1.4.5
Video
ID : 1
Format : AVC
Format/Info : Advanced Video Codec
Format profile : High@L4.1
Format settings, CABAC : Yes
Format settings, ReFrames : 5 frames
Codec ID : V_MPEG4/ISO/AVC
Duration : 1 h 31 min
Bit rate : 9 578 kb/s
Width : 1 920 pixels
Height : 808 pixels
Display aspect ratio : 2.40:1
Frame rate mode : Constant
Frame rate : 23.976 (24000/1001) FPS
Color space : YUV
Chroma subsampling : 4:2:0
Bit depth : 8 bits
Scan type : Progressive
Bits/(Pixel*Frame) : 0.258
Stream size : 6.14 GiB (92%)
Title : Security (2017) 1080p
Writing library : x264 core 152 r2851 ba24899
Language : English
Default : Yes
Forced : No
Audio #1
ID : 2
Format : AC-3
Format/Info : Audio Coding 3
Mode extension : CM (complete main)
Format settings, Endianness : Big
Codec ID : A_AC3
Duration : 1 h 31 min
Bit rate mode : Constant
Bit rate : 192 kb/s
Channel(s) : 2 channels
Channel positions : Front: L R
Sampling rate : 48.0 kHz
Frame rate : 31.250 FPS (1536 spf)
Bit depth : 16 bits
Compression mode : Lossy
Stream size : 126 MiB (2%)
Title : Latin-AC 3-(2.0)-DVD
Language : Spanish
Default : Yes
Forced : No
Audio #2
ID : 3
Format : AC-3
Format/Info : Audio Coding 3
Mode extension : CM (complete main)
Format settings, Endianness : Big
Codec ID : A_AC3
Duration : 1 h 31 min
Bit rate mode : Constant
Bit rate : 640 kb/s
Channel(s) : 6 channels
Channel positions : Front: L C R, Side: L R, LFE
Sampling rate : 48.0 kHz
Frame rate : 31.250 FPS (1536 spf)
Bit depth : 16 bits
Compression mode : Lossy
Stream size : 421 MiB (6%)
Title : AC 3.(5.1) BluRay
Language : English
Default : No
Forced : No
Text
ID : 4
Format : UTF-8
Codec ID : S_TEXT/UTF8
Codec ID/Info : UTF-8 Plain Text
Duration : 1 h 26 min
Bit rate : 53 b/s
Count of elements : 960
Stream size : 33.8 KiB (0%)
Language : Spanish
Default : No
Forced : No



Security [2017]  FullHD 1080p  [Ing-Lat]
Security [2017]  FullHD 1080p  [Ing-Lat]

Security [2017]  FullHD 1080p  [Ing-Lat]
Para poder ver los links necesitas estar Registrado . O.. ya tienes cuenta? Logueate!

Puntos agregados!

0 Puntos

Votos: 0 - T! score: 0/10

38

Visitas

0

Favoritos

0

Medallas

0

Seguidores

0 Comentarios

Cargando comentarios espera un momento...
Para poder comentar necesitas estar Registrado. O.. ya tienes usuario? Logueate!
Tu comentario fue agreado correctamente