Million Dollar Baby [2004] FullHD 1080p [Ing-Lat]

TV, Peliculas y series | Hace 14 días
0
0
0

Million Dollar Baby [2004]  FullHD 1080p  [Ing-Lat]

TÍTULO ORIGINAL: Million Dollar Baby
AÑO: 2004
DURACIÓN: 132 min.
País: Estados Unidos
DIRECTOR: Clint Eastwood
GUIÓN: Paul Haggis (Historia: F.X. O'Toole)
MÚSICA: Clint Eastwood
FOTOGRAFÍA: Thomas Stern
REPARTO: Clint Eastwood, Hilary Swank, Morgan Freeman, Anthony Mackie, Jay Baruchel, Mike Colter, Lucia Rijker, Brian O'Byrne, Margo Martindale, Riki Lindhome
PRODUCTORA: Warner Bros. Pictures / Laskeshore Entertainment / Malpaso Productions
GÉNERO: Drama | Deporte. Boxeo
Sinopsis: Después de haber entrenado y representado a los mejores púgiles, Frankie Dunn (Eastwood) regenta un gimnasio con la ayuda de Scrap (Freeman), un ex-boxeador que es además su único amigo. Frankie es un hombre solitario y adusto que se refugia desde hace años en la religión buscando una redención que no llega. Un día, entra en su gimnasio Maggie Fitzgerald (Hilary Swank), una voluntariosa chica que quiere boxear y que está dispuesta a luchar denodadamente para conseguirlo. Pero lo que más desea y necesita es que alguien crea en ella. Frankie la rechaza alegando que él no entrena chicas y que, además, es demasiado mayor. Pero Maggie no se rinde y se machaca cada día en el gimnasio, con el único apoyo de Scrap. Finalmente, convencido de la inquebrantable determinación de Maggie, Frankie decide entrenarla.
https://www.imdb.com/title/tt0405159//
Trailer
https://youtu.be/5_RsHRmIRBY


Cita:


General
Format : Matroska
Format version : Version 4 / Version 2
File size : 11.9 GiB
Duration : 2h 12mn
Overall bit rate : 12.9 Mbps
Encoded date : UTC 2016-07-11 21:32:30
Writing application : mkvmerge v8.3.0 ('Over the Horizon') 64bit
Writing library : libebml v1.3.1 + libmatroska v1.4.2
Video
ID : 1
Format : AVC
Format/Info : Advanced Video Codec
Format profile : High@L4.1
Format settings, CABAC : Yes
Format settings, ReFrames : 5 frames
Codec ID : V_MPEG4/ISO/AVC
Duration : 2h 12mn
Bit rate : 10.3 Mbps
Width : 1 920 pixels
Height : 800 pixels
Display aspect ratio : 2.40:1
Frame rate mode : Constant
Frame rate : 23.976 fps
Color space : YUV
Chroma subsampling : 4:2:0
Bit depth : 8 bits
Scan type : Progressive
Bits/(Pixel*Frame) : 0.279
Stream size : 9.51 GiB (80%)
Writing library : x264 core 67 r1128M 682b54d
Language : English
Default : Yes
Forced : No
Audio #1
ID : 2
Format : AC-3
Format/Info : Audio Coding 3
Mode extension : CM (complete main)
Format settings, Endianness : Big
Codec ID : A_AC3
Duration : 2h 12mn
Bit rate mode : Constant
Bit rate : 448 Kbps
Channel(s) : 6 channels
Channel positions : Front: L C R, Side: L R, LFE
Sampling rate : 48.0 KHz
Frame rate : 31.250 fps (1536 spf)
Compression mode : Lossy
Delay relative to video : 26ms
Stream size : 424 MiB (3%)
Title : Latin AC3 5.1 @448 kbps
Language : Spanish
Default : Yes
Forced : No
Audio #2
ID : 3
Format : AC-3
Format/Info : Audio Coding 3
Mode extension : CM (complete main)
Format settings, Endianness : Big
Codec ID : A_AC3
Duration : 2h 12mn
Bit rate mode : Constant
Bit rate : 640 Kbps
Channel(s) : 6 channels
Channel positions : Front: L C R, Side: L R, LFE
Sampling rate : 48.0 KHz
Frame rate : 31.250 fps (1536 spf)
Compression mode : Lossy
Stream size : 606 MiB (5%)
Title : AC3 5.1
Language : English
Default : No
Forced : No
Audio #3
ID : 4
Format : DTS
Format/Info : Digital Theater Systems
Mode : 16
Format settings, Endianness : Big
Codec ID : A_DTS
Duration : 2h 12mn
Bit rate mode : Constant
Bit rate : 1 509 Kbps
Channel(s) : 6 channels
Channel positions : Front: L C R, Side: L R, LFE
Sampling rate : 48.0 KHz
Frame rate : 93.750 fps (512 spf)
Bit depth : 24 bits
Compression mode : Lossy
Stream size : 1.40 GiB (12%)
Title : DTS 5.1
Language : English
Default : No
Forced : No
Text #1
ID : 5
Format : UTF-8
Codec ID : S_TEXT/UTF8
Codec ID/Info : UTF-8 Plain Text
Duration : 2h 11mn
Bit rate : 59 bps
Count of elements : 1487
Stream size : 57.3 KiB (0%)
Language : Spanish
Default : No
Forced : No
Text #2
ID : 6
Format : UTF-8
Codec ID : S_TEXT/UTF8
Codec ID/Info : UTF-8 Plain Text
Duration : 2h 12mn
Bit rate : 57 bps
Count of elements : 1492
Stream size : 55.9 KiB (0%)
Language : English
Default : No
Forced : No



Million Dollar Baby [2004]  FullHD 1080p  [Ing-Lat]
Million Dollar Baby [2004]  FullHD 1080p  [Ing-Lat]

Million Dollar Baby [2004]  FullHD 1080p  [Ing-Lat]
Para poder ver los links necesitas estar Registrado . O.. ya tienes cuenta? Logueate!

Puntos agregados!

0 Puntos

Votos: 0 - T! score: 0/10

16

Visitas

0

Favoritos

0

Medallas

0

Seguidores

0 Comentarios

Cargando comentarios espera un momento...
Para poder comentar necesitas estar Registrado. O.. ya tienes usuario? Logueate!
Tu comentario fue agreado correctamente