Fallen [1998] FullHD 1080p [Ing-Lat]

TV, Peliculas y series | Hace 18 días
0
0
0

Fallen [1998]  FullHD 1080p  [Ing-Lat]

Título original: Fallen
Año: 1998
Duración: 120 min.
País: Estados Unidos
Director: Gregory Hoblit
Reparto: Denzel Washington, John Goodman, Donald Sutherland, James Gandolfini, Embeth Davidtz, Elias Koteas, Robert Joy, Barry Shabaka Henley, Aida Turturro
Productora: Turner Pictures / Atlas Entertainment
Género: Thriller. Fantástico. Intriga | Sobrenatural. Posesiones/Exorcismos
Sinopsis: El detective John Hobbes está convencido de que tras la ejecución del asesino en serie Edgar Reese se han acabado los problemas. Pero cuando la gente que conoce comienza a cantar la misma canción que Reese cantó durante su ejecución, Hobbes se da cuenta que quizá tras los crímenes se encuentre el ángel caído Azazel, que fue condenado a vagar informe por la Tierra y toma los cuerpos de otras personas.
https://www.imdb.com/title/tt0119099
Trailer
https://youtu.be/JC-ykURLzSg


Cita:


General
Format : Matroska
Format version : Version 4 / Version 2
File size : 8.42 GiB
Duration : 2 h 4 min
Overall bit rate : 9 702 kb/s
Movie name : Fallen (1998) 1080p
Encoded date : UTC 2017-09-21 23:54:21
Writing application : mkvmerge v15.0.0 ('Duel with the Devil') 64-bit
Writing library : libebml v1.3.5 + libmatroska v1.4.5
Video
ID : 1
Format : AVC
Format/Info : Advanced Video Codec
Format profile : High@L4.1
Format settings, CABAC : Yes
Format settings, ReFrames : 4 frames
Codec ID : V_MPEG4/ISO/AVC
Duration : 2 h 4 min
Bit rate : 8 000 kb/s
Width : 1 920 pixels
Height : 800 pixels
Display aspect ratio : 2.40:1
Frame rate mode : Constant
Frame rate : 23.976 (24000/1001) FPS
Color space : YUV
Chroma subsampling : 4:2:0
Bit depth : 8 bits
Scan type : Progressive
Bits/(Pixel*Frame) : 0.217
Stream size : 6.94 GiB (82%)
Title : Fallen (1998) 1080p
Writing library : x264 core 148 r2708 86b7198
Language : English
Default : Yes
Forced : No
Color range : Limited
Color primaries : BT.709
Transfer characteristics : BT.709
Matrix coefficients : BT.709
Audio #1
ID : 2
Format : AC-3
Format/Info : Audio Coding 3
Mode extension : CM (complete main)
Format settings, Endianness : Big
Codec ID : A_AC3
Duration : 2 h 4 min
Bit rate mode : Constant
Bit rate : 192 kb/s
Channel(s) : 1 channel
Channel positions : Front: C
Sampling rate : 48.0 kHz
Frame rate : 31.250 FPS (1536 spf)
Bit depth : 16 bits
Compression mode : Lossy
Stream size : 171 MiB (2%)
Title : AC3 1.0 Bluray Latin
Language : Spanish
Default : Yes
Forced : No
Audio #2
ID : 3
Format : DTS
Format/Info : Digital Theater Systems
Mode : 16
Format settings, Endianness : Big
Codec ID : A_DTS
Duration : 2 h 4 min
Bit rate mode : Constant
Bit rate : 1 510 kb/s
Channel(s) : 6 channels
Channel positions : Front: L C R, Side: L R, LFE
Sampling rate : 48.0 kHz
Frame rate : 93.750 FPS (512 spf)
Bit depth : 24 bits
Compression mode : Lossy
Stream size : 1.31 GiB (16%)
Title : DTS
Language : English
Default : No
Forced : No
Text
ID : 4
Format : UTF-8
Codec ID : S_TEXT/UTF8
Codec ID/Info : UTF-8 Plain Text
Duration : 2 h 0 min
Bit rate : 49 b/s
Count of elements : 1412
Stream size : 43.7 KiB (0%)
Title : Subtit_Compl
Language : Spanish
Default : No
Forced : No



Fallen [1998]  FullHD 1080p  [Ing-Lat]
Fallen [1998]  FullHD 1080p  [Ing-Lat]

Fallen [1998]  FullHD 1080p  [Ing-Lat]
Para poder ver los links necesitas estar Registrado . O.. ya tienes cuenta? Logueate!

Puntos agregados!

0 Puntos

Votos: 0 - T! score: 0/10

20

Visitas

0

Favoritos

0

Medallas

0

Seguidores

0 Comentarios

Cargando comentarios espera un momento...
Para poder comentar necesitas estar Registrado. O.. ya tienes usuario? Logueate!
Tu comentario fue agreado correctamente