Enemy at the Gates [2001] FullHD 1080p [Ing-Lat]

TV, Peliculas y series | Hace 16 días
0
0
0

Enemy at the Gates [2001]  FullHD 1080p  [Ing-Lat]

Título original: Enemy at the Gates
Año: 2001
Duración: 126 min.
País: Estados Unidos
Director: Jean-Jacques Annaud
Reparto: Jude Law, Joseph Fiennes, Rachel Weisz, Ed Harris, Bob Hoskins, Ron Perlman, Eva Mattes, Gabriel Thomson, Matthias Habich, Sophie Rois, Ivan Shvedoff, Mario Bandi, Hans Martin Stier, Clemens Schick, Mikhail Matveyev, Alexander Schwan
Productora: Paramount Pictures / Mandalay Pictures present a Repérage Production
Género: Bélico | II Guerra Mundial. Basado en hechos reales.
Sinopsis: Mientras los ejércitos de Alemania y la Unión Soviética luchan encarnizadamente y el mundo espera con ansiedad el desenlace de la batalla de Stalingrado, un francotirador ruso, Vassili Zaitsev, persevera en la empresa de eliminar a sus enemigos uno por uno. Danilov -el oficial encargado de la propaganda soviética- lo convierte en un héroe nacional que debe servir de ejemplo para animar a las tropas a proseguir la lucha contra el ejército alemán. Los alemanes, por su parte, envían a su mejor francotirador, el mayor König, para que elimine a Vassili
https://www.imdb.com/title/tt0215750
Trailer
https://youtu.be/4O-sMh_DO6I


Cita:


General
Unique ID : 228417244243166452511400253855974513300 (0xABD78FA0FCF0F5E2B5F5D370BA735A94)
Complete name : Enemy at the Gates (2001) 1080p BDRip Dual.mkv
Format : Matroska
Format version : Version 4 / Version 2
File size : 8.54 GiB
Duration : 2 h 11 min
Overall bit rate : 9 324 kb/s
Movie name : Enemy at the Gates (2001)
Encoded date : UTC 2017-09-11 21:37:52
Writing application : mkvmerge v15.0.0 ('Duel with the Devil') 64-bit
Writing library : libebml v1.3.5 + libmatroska v1.4.5
Video
ID : 1
Format : AVC
Format/Info : Advanced Video Codec
Format profile : High@L4.1
Format settings, CABAC : Yes
Format settings, ReFrames : 5 frames
Codec ID : V_MPEG4/ISO/AVC
Duration : 2 h 11 min
Bit rate : 8 037 kb/s
Width : 1 920 pixels
Height : 816 pixels
Display aspect ratio : 2.35:1
Frame rate mode : Constant
Frame rate : 23.976 FPS
Color space : YUV
Chroma subsampling : 4:2:0
Bit depth : 8 bits
Scan type : Progressive
Bits/(Pixel*Frame) : 0.214
Stream size : 7.36 GiB (86%)
Title : MPEG-4 AVC / 1080p / High Profile 4.1 / 8037 kbps / Bluray
Writing library : x264 core 67 r1137M 1fda882
Default : Yes
Forced : No
Audio #1
ID : 2
Format : AC-3
Format/Info : Audio Coding 3
Mode extension : CM (complete main)
Format settings, Endianness : Big
Codec ID : A_AC3
Duration : 2 h 11 min
Bit rate mode : Constant
Bit rate : 640 kb/s
Channel(s) : 6 channels
Channel positions : Front: L C R, Side: L R, LFE
Sampling rate : 48.0 kHz
Frame rate : 31.250 FPS (1536 spf)
Bit depth : 16 bits
Compression mode : Lossy
Stream size : 600 MiB (7%)
Title : Dolby Digital / 5.1 / 640 kbps / 48kHz / Bluray
Language : English
Default : No
Forced : No
Audio #2
ID : 3
Format : AC-3
Format/Info : Audio Coding 3
Mode extension : CM (complete main)
Format settings, Endianness : Big
Codec ID : A_AC3
Duration : 2 h 11 min
Bit rate mode : Constant
Bit rate : 640 kb/s
Channel(s) : 6 channels
Channel positions : Front: L C R, Side: L R, LFE
Sampling rate : 48.0 kHz
Frame rate : 31.250 FPS (1536 spf)
Bit depth : 16 bits
Compression mode : Lossy
Stream size : 600 MiB (7%)
Title : Latin / Dolby Digital / 5.1 / 640 kbps / 48kHz / Bluray
Language : Spanish
Default : Yes
Forced : No
Text #1
ID : 4
Format : PGS
Muxing mode : zlib
Codec ID : S_HDMV/PGS
Codec ID/Info : Picture based subtitle format used on BDs/HD-DVDs
Duration : 2 h 2 min
Bit rate : 23.9 kb/s
Count of elements : 2184
Stream size : 21.0 MiB (0%)
Title : Latin / PGS / Bluray
Language : Spanish
Default : No
Forced : No
Text #2
ID : 5
Format : UTF-8
Codec ID : S_TEXT/UTF8
Codec ID/Info : UTF-8 Plain Text
Duration : 2 h 2 min
Bit rate : 38 b/s
Count of elements : 1092
Stream size : 34.4 KiB (0%)
Title : Latin / SubRip / Bluray
Language : Spanish
Default : No
Forced : No



Enemy at the Gates [2001]  FullHD 1080p  [Ing-Lat]
Enemy at the Gates [2001]  FullHD 1080p  [Ing-Lat]

Enemy at the Gates [2001]  FullHD 1080p  [Ing-Lat]
Para poder ver los links necesitas estar Registrado . O.. ya tienes cuenta? Logueate!

Puntos agregados!

0 Puntos

Votos: 0 - T! score: 0/10

19

Visitas

0

Favoritos

0

Medallas

0

Seguidores

0 Comentarios

Cargando comentarios espera un momento...
Para poder comentar necesitas estar Registrado. O.. ya tienes usuario? Logueate!
Tu comentario fue agreado correctamente