Ace Ventura When Nature Calls [1995] FullHD 1080p [Ing-Lat

TV, Peliculas y series | Más de 2 meses
0
0
0


Ace Ventura When Nature Calls [1995]  FullHD 1080p  [Ing-Lat

TÍTULO ORIGINAL: Ace Ventura: When Nature Calls
AÑO: 1995
DURACIÓN: 91 min.
PAÍS: USA
DIRECTOR: Steve Oedekerk
GUIÓN: Steve Oedekerk
REPARTO: Jim Carrey, Ian McNeice, Simon Callow, Maynard Eziashi, Bob Gunton, Sophie Okonedo, Tommy Davidson, Adewale Akinnuoye-Agbaje
PRODUCTORA: Morgan Creek production
GÉNERO: Comedia. Aventuras | Secuela. África
Sinopsis: Intentando superar el trauma que le ha dejado el fracaso de su última misión, en la que no pudo evitar que muriera el mapache que tenía que rescatar, el inefable detective Ace Ventura se retira a un monasterio budista. Pero, una vez allí, un extraño personaje le ofrece una fuerte suma de dinero para que trate de encontrar al animal sagrado de una tribu.
https://www.imdb.com/title/tt0112281/
Trailer
https://youtu.be/A99O84ct-WM


Cita:


General
Format : Matroska
Format version : Version 2
File size : 7.10 GiB
Duration : 1h 34mn
Overall bit rate : 10.8 Mbps
Encoded date : UTC 2013-10-04 02:15:20
Writing application : mkvmerge v5.7.0 ('The Whirlwind') built on Jul 8 2012 20:08:51
Writing library : libebml v1.2.3 + libmatroska v1.3.0
Video
ID : 1
Format : AVC
Format/Info : Advanced Video Codec
Format profile : High@L4.1
Format settings, CABAC : Yes
Format settings, ReFrames : 5 frames
Codec ID : V_MPEG4/ISO/AVC
Duration : 1h 34mn
Bit rate : 8 468 Kbps
Width : 1 920 pixels
Height : 800 pixels
Display aspect ratio : 2.40:1
Frame rate mode : Constant
Frame rate : 23.976 fps
Color space : YUV
Chroma subsampling : 4:2:0
Bit depth : 8 bits
Scan type : Progressive
Bits/(Pixel*Frame) : 0.230
Stream size : 5.42 GiB (76%)
Writing library : x264 core 133 r2334 a3ac64b
Language : English
Default : Yes
Forced : No
Audio #1
ID : 2
Format : AC-3
Format/Info : Audio Coding 3
Format profile : Dolby Digital
Mode extension : CM (complete main)
Format settings, Endianness : Big
Codec ID : A_AC3
Duration : 1h 34mn
Bit rate mode : Constant
Bit rate : 192 Kbps
Channel(s) : 2 channels
Channel positions : Front: L R
Sampling rate : 48.0 KHz
Bit depth : 16 bits
Compression mode : Lossy
Stream size : 129 MiB (2%)
Title : Latin AC3 2.0
Language : Spanish
Default : Yes
Forced : No
Audio #2
ID : 3
Format : AC-3
Format/Info : Audio Coding 3
Mode extension : CM (complete main)
Format settings, Endianness : Big
Codec ID : A_AC3
Duration : 1h 34mn
Bit rate mode : Constant
Bit rate : 640 Kbps
Channel(s) : 5 channels
Channel positions : Front: L C R, Side: L R
Sampling rate : 48.0 KHz
Bit depth : 16 bits
Compression mode : Lossy
Stream size : 431 MiB (6%)
Title : AC3
Language : English
Default : No
Forced : No
Audio #3
ID : 4
Format : DTS
Format/Info : Digital Theater Systems
Mode : 16
Format settings, Endianness : Big
Codec ID : A_DTS
Duration : 1h 34mn
Bit rate mode : Constant
Bit rate : 1 509 Kbps
Channel(s) : 5 channels
Channel positions : Front: L C R, Side: L R
Sampling rate : 48.0 KHz
Bit depth : 24 bits
Compression mode : Lossy
Stream size : 1 015 MiB (14%)
Title : DTS
Language : English
Default : No
Forced : No
Text
ID : 5
Format : UTF-8
Codec ID : S_TEXT/UTF8
Codec ID/Info : UTF-8 Plain Text
Language : Spanish
Default : No
Forced : No



Ace Ventura When Nature Calls [1995]  FullHD 1080p  [Ing-Lat
Ace Ventura When Nature Calls [1995]  FullHD 1080p  [Ing-Lat

Ace Ventura When Nature Calls [1995]  FullHD 1080p  [Ing-Lat
Para poder ver los links necesitas estar Registrado . O.. ya tienes cuenta? Logueate!

Puntos agregados!

0 Puntos

Votos: 0 - T! score: 0/10

36

Visitas

0

Favoritos

0

Medallas

0

Seguidores

0 Comentarios

Cargando comentarios espera un momento...
Para poder comentar necesitas estar Registrado. O.. ya tienes usuario? Logueate!
Tu comentario fue agreado correctamente