Ace Ventura Pet Detective [1994] FullHD 1080p [Ing-Lat]

TV, Peliculas y series | Más de 2 meses
0
0
0


Ace Ventura Pet Detective [1994]  FullHD 1080p  [Ing-Lat]

TÍTULO ORIGINAL: Ace Ventura, Pet Detective
AÑO: 1994
DURACIÓN: 85 min.
PAÍS: USA
DIRECTOR: Tom Shadyac
GUIÓN: Jack B. Bernstein, Tom Shadyac, Jim Carrey
REPARTO: Jim Carrey, Sean Young, Courteney Cox, Tone Loc, Dan Marino, Noble Willingham, Troy Evans, Udo Kier, Raynor Scheine, Frank Adonis, Tiny Ron, David Margulies, John Capodice, Judy Clayton, Bill Zuckert, Alice Drummond, Rebecca Ferratti, Mark Margolis
PRODUCTORA: Morgan Creek
GÉNERO: Comedia | Animales. Delfines
Sinopsis: El detective Ace Ventura, especializado en rescatar animales secuestrados, recibe el encargo de localizar y rescatar el delfin Copo de Nieve, mascota del equipo de fútbol de Miami, que ha sido secuestrado el día anterior a la gran final que debe disputar el equipo.
https://www.imdb.com/title/tt0109040/
Trailer
https://youtu.be/QzxDlS6QY1s


Cita:


General
Format : Matroska
Format version : Version 2
File size : 7.05 GiB
Duration : 1h 26mn
Overall bit rate : 11.7 Mbps
Encoded date : UTC 2013-09-29 05:04:10
Writing application : mkvmerge v5.7.0 ('The Whirlwind') built on Jul 8 2012 20:08:51
Writing library : libebml v1.2.3 + libmatroska v1.3.0
Video
ID : 1
Format : AVC
Format/Info : Advanced Video Codec
Format profile : High@L4.1
Format settings, CABAC : Yes
Format settings, ReFrames : 4 frames
Codec ID : V_MPEG4/ISO/AVC
Duration : 1h 26mn
Bit rate : 9 402 Kbps
Width : 1 920 pixels
Height : 1 080 pixels
Display aspect ratio : 16:9
Frame rate mode : Constant
Frame rate : 23.976 fps
Color space : YUV
Chroma subsampling : 4:2:0
Bit depth : 8 bits
Scan type : Progressive
Bits/(Pixel*Frame) : 0.189
Stream size : 5.51 GiB (78%)
Writing library : x264 core 133 r2334 a3ac64b
Language : English
Default : Yes
Forced : No
Audio #1
ID : 2
Format : AC-3
Format/Info : Audio Coding 3
Format profile : Dolby Digital
Mode extension : CM (complete main)
Format settings, Endianness : Big
Codec ID : A_AC3
Duration : 1h 26mn
Bit rate mode : Constant
Bit rate : 192 Kbps
Channel(s) : 2 channels
Channel positions : Front: L R
Sampling rate : 48.0 KHz
Bit depth : 16 bits
Compression mode : Lossy
Stream size : 118 MiB (2%)
Title : Latin AC3
Language : Spanish
Default : Yes
Forced : No
Audio #2
ID : 3
Format : AC-3
Format/Info : Audio Coding 3
Mode extension : CM (complete main)
Format settings, Endianness : Big
Codec ID : A_AC3
Duration : 1h 26mn
Bit rate mode : Constant
Bit rate : 640 Kbps
Channel(s) : 6 channels
Channel positions : Front: L C R, Side: L R, LFE
Sampling rate : 48.0 KHz
Bit depth : 16 bits
Compression mode : Lossy
Stream size : 394 MiB (5%)
Title : AC3
Language : English
Default : No
Forced : No
Audio #3
ID : 4
Format : DTS
Format/Info : Digital Theater Systems
Mode : 16
Format settings, Endianness : Big
Codec ID : A_DTS
Duration : 1h 26mn
Bit rate mode : Constant
Bit rate : 1 509 Kbps
Channel(s) : 6 channels
Channel positions : Front: L C R, Side: L R, LFE
Sampling rate : 48.0 KHz
Bit depth : 24 bits
Compression mode : Lossy
Stream size : 928 MiB (13%)
Title : DTS
Language : English
Default : No
Forced : No
Text
ID : 5
Format : UTF-8
Codec ID : S_TEXT/UTF8
Codec ID/Info : UTF-8 Plain Text
Language : Spanish
Default : No
Forced : No



Ace Ventura Pet Detective [1994]  FullHD 1080p  [Ing-Lat]
Ace Ventura Pet Detective [1994]  FullHD 1080p  [Ing-Lat]

Ace Ventura Pet Detective [1994]  FullHD 1080p  [Ing-Lat]
Para poder ver los links necesitas estar Registrado . O.. ya tienes cuenta? Logueate!

Puntos agregados!

0 Puntos

Votos: 0 - T! score: 0/10

28

Visitas

0

Favoritos

0

Medallas

0

Seguidores

0 Comentarios

Cargando comentarios espera un momento...
Para poder comentar necesitas estar Registrado. O.. ya tienes usuario? Logueate!
Tu comentario fue agreado correctamente