The Indian In The Cupboard [1995] FullHD 1080p [Ing-Lat]

TV, Peliculas y series | Hace 22 días
0
0
0

The Indian In The Cupboard [1995]  FullHD 1080p  [Ing-Lat]

Título original: The Indian in the Cupboard
Año: 1995
Duración: 96 min.
País: Estados Unidos Estados Unidos
Director: Frank Oz
Guion: Melissa Mathison (Novela: Lynne Reid Banks)
Música: Randy Edelman
Fotografía: Russell Carpenter
Reparto: Hal Scardino, Litefoot, Lindsay Crouse, Richard Jenkins, Rishi Bhat, Steve Coogan, David Keith, Sakina Jaffrey, Vincent Kartheiser, Nestor Serrano, Ryan Olson: Productora: Paramount Pictures
Género: Infantil. Fantástico | Cine familiar
Sinopsis: Cuando cumple nueve años, Omri solo recibe regalos convencionales. Sin embargo, descubrirá que dos de ellos, los que, a primera vista, parecen menos interesantes, tienen un carácter mágico, gracias al cual Omri vivirá emocionantes aventuras.
https://www.imdb.com/title/tt0113419/
Trailer
https://youtu.be/yoIBXVm_B9Y


Cita:


General
Complete name : The Indian In The Cupboard (1995).mkv
Format : Matroska
Format version : Version 4 / Version 2
File size : 4.95 GiB
Duration : 1 h 36 min
Overall bit rate : 7 374 kb/s
Movie name : WWW.CLUB-HD.COM
Encoded date : UTC 2017-09-23 18:27:56
Writing application : mkvmerge v9.9.0 ('Pick Up') 64bit
Writing library : libebml v1.3.4 + libmatroska v1.4.5
Video
ID : 1
Format : AVC
Format/Info : Advanced Video Codec
Format profile : High@L4.1
Format settings, CABAC : Yes
Format settings, ReFrames : 9 frames
Codec ID : V_MPEG4/ISO/AVC
Duration : 1 h 36 min
Bit rate : 6 800 kb/s
Width : 1 280 pixels
Height : 674 pixels
Display aspect ratio : 1.899
Frame rate mode : Constant
Frame rate : 23.976 (24000/1001) FPS
Color space : YUV
Chroma subsampling : 4:2:0
Bit depth : 8 bits
Scan type : Progressive
Bits/(Pixel*Frame) : 0.329
Stream size : 4.56 GiB (92%)
Writing library : x264 core 142 r2389 956c8d8
Language : English
Default : Yes
Forced : No
Audio #1
ID : 2
Format : AC-3
Format/Info : Audio Coding 3
Format profile : Dolby Digital
Mode extension : CM (complete main)
Format settings, Endianness : Big
Codec ID : A_AC3
Duration : 1 h 36 min
Bit rate mode : Constant
Bit rate : 192 kb/s
Channel(s) : 2 channels
Channel positions : Front: L R
Sampling rate : 48.0 kHz
Frame rate : 31.250 FPS (1536 spf)
Bit depth : 16 bits
Compression mode : Lossy
Delay relative to video : 250 ms
Stream size : 132 MiB (3%)
Language : Latin
Default : Yes
Forced : No
Audio #2
ID : 3
Format : AC-3
Format/Info : Audio Coding 3
Mode extension : CM (complete main)
Format settings, Endianness : Big
Codec ID : A_AC3
Duration : 1 h 36 min
Bit rate mode : Constant
Bit rate : 384 kb/s
Channel(s) : 6 channels
Channel positions : Front: L C R, Side: L R, LFE
Sampling rate : 48.0 kHz
Frame rate : 31.250 FPS (1536 spf)
Bit depth : 16 bits
Compression mode : Lossy
Stream size : 264 MiB (5%)
Language : English
Default : No
Forced : No
Text
ID : 4
Format : UTF-8
Codec ID : S_TEXT/UTF8
Codec ID/Info : UTF-8 Plain Text
Duration : 1 h 30 min
Bit rate : 36 b/s
Count of elements : 703
Stream size : 23.9 KiB (0%)
Language : Spanish
Default : No
Forced : No



The Indian In The Cupboard [1995]  FullHD 1080p  [Ing-Lat]
The Indian In The Cupboard [1995]  FullHD 1080p  [Ing-Lat]

The Indian In The Cupboard [1995]  FullHD 1080p  [Ing-Lat]
Para poder ver los links necesitas estar Registrado . O.. ya tienes cuenta? Logueate!

Puntos agregados!

0 Puntos

Votos: 0 - T! score: 0/10

19

Visitas

0

Favoritos

0

Medallas

0

Seguidores

0 Comentarios

Cargando comentarios espera un momento...
Para poder comentar necesitas estar Registrado. O.. ya tienes usuario? Logueate!
Tu comentario fue agreado correctamente