The Car [1977] FullHD 1080p [Ing-Lat]

TV, Peliculas y series | Hace 22 días
0
0
0

The Car [1977]  FullHD 1080p  [Ing-Lat]

Título original: The Car
Año: 1977
Duración: 96 min.
País: Estados Unidos Estados Unidos
Director: Elliot Silverstein
Guion: Michael Butler, Dennis Schryack, Lane Slate
Música: Leonard Rosenman
Fotografía: Gerald Hirschfeld
Reparto: James Brolin, Kathleen Lloyd, John Marley, Ronny Cox, R.G. Armstrong, John Rubinstein, Elizabeth Thompson, Roy Jenson, Kim Richards, Kyle Richards, Kate Murtagh, Robert Phillips, Doris Dowling
Productora: Universal Pictures
Género: Terror. Intriga. Thriller | Coches / Automovilismo. Policíaco. Película de culto
Sinopsis: El Sheriff Wade Parent (James Brolin) debe encontrar el modo de detener un enorme coche negro, aparentemente indestructible, que tiene aterrorizados a los habitantes de un pequeño pueblo de Nuevo México. Nadie conoce el origen del coche, quién lo conduce o cómo pararlo.
https://www.imdb.com/title/tt0075809/?ref_=nv_sr_1%22
Trailer
https://youtu.be/j6-yVoJTCo8


Cita:


General
Complete name : The Car (1977) 1080p.mkv
Format : Matroska
Format version : Version 4 / Version 2
File size : 8.87 GiB
Duration : 1 h 36 min
Overall bit rate : 13.2 Mb/s
Encoded date : UTC 2017-09-17 01:07:02
Writing application : mkvmerge v9.9.0 ('Pick Up') 64bit
Writing library : libebml v1.3.4 + libmatroska v1.4.5
Video
ID : 1
Format : AVC
Format/Info : Advanced Video Codec
Format profile : High@L4.1
Format settings, CABAC : Yes
Format settings, ReFrames : 5 frames
Codec ID : V_MPEG4/ISO/AVC
Duration : 1 h 36 min
Bit rate : 11.5 Mb/s
Width : 1 920 pixels
Height : 824 pixels
Display aspect ratio : 2.35:1
Frame rate mode : Constant
Frame rate : 23.976 (24000/1001) FPS
Color space : YUV
Chroma subsampling : 4:2:0
Bit depth : 8 bits
Scan type : Progressive
Bits/(Pixel*Frame) : 0.303
Stream size : 7.73 GiB (87%)
Writing library : x264 core 148 r2665 a01e339
Default : Yes
Forced : No
Audio #1
ID : 2
Format : AC-3
Format/Info : Audio Coding 3
Mode extension : CM (complete main)
Format settings, Endianness : Big
Codec ID : A_AC3
Duration : 1 h 36 min
Bit rate mode : Constant
Bit rate : 192 kb/s
Channel(s) : 2 channels
Channel positions : Front: L R
Sampling rate : 48.0 kHz
Frame rate : 31.250 FPS (1536 spf)
Bit depth : 16 bits
Compression mode : Lossy
Delay relative to video : 2 s 871 ms
Stream size : 132 MiB (1%)
Language : Latin Spanish
Default : Yes
Forced : No
Audio #2
ID : 3
Format : DTS
Format/Info : Digital Theater Systems
Mode : 16
Format settings, Endianness : Big
Codec ID : A_DTS
Duration : 1 h 36 min
Bit rate mode : Constant
Bit rate : 1 509 kb/s
Channel(s) : 6 channels
Channel positions : Front: L C R, Side: L R, LFE
Sampling rate : 48.0 kHz
Frame rate : 93.750 FPS (512 spf)
Bit depth : 24 bits
Compression mode : Lossy
Stream size : 1.01 GiB (11%)
Title : BluRay WWW.CLUB-HD.COM
Language : English
Default : No
Forced : No
Text
ID : 4
Format : ASS
Codec ID : S_TEXT/ASS
Codec ID/Info : Advanced Sub Station Alpha
Duration : 1 h 33 min
Bit rate : 68 b/s
Count of elements : 830
Compression mode : Lossless
Stream size : 46.8 KiB (0%)
Language : Spanish
Default : No
Forced : No



The Car [1977]  FullHD 1080p  [Ing-Lat]
The Car [1977]  FullHD 1080p  [Ing-Lat]

The Car [1977]  FullHD 1080p  [Ing-Lat]
Para poder ver los links necesitas estar Registrado . O.. ya tienes cuenta? Logueate!

Puntos agregados!

0 Puntos

Votos: 0 - T! score: 0/10

21

Visitas

0

Favoritos

0

Medallas

0

Seguidores

0 Comentarios

Cargando comentarios espera un momento...
Para poder comentar necesitas estar Registrado. O.. ya tienes usuario? Logueate!
Tu comentario fue agreado correctamente