SAW The Final Chapter [2010] FullHD 1080p [Ing-Lat]

TV, Peliculas y series | Más de 2 meses
0
0
0


SAW The Final Chapter [2010]  FullHD 1080p  [Ing-Lat]

Título originalaw: The Final Chapter
Año: 2010
Duración: 90 min.
País: Estados Unidos
Director: Kevin Greutert
Guión:Marcus Dunstan, Patrick Melton
Música: Charlie Clouser
Fotografía: Brian Gedge
Reparto: Tobin Bell, Costas Mandylor, Betsy Russell, Sean Patrick Flanery, Cary Elwes, Dean Armstrong, Chad Donella, Laurence Anthony, Gina Holden, Naomi Snieckus, Shauna MacDonald, Tanedra Howard, Greg Bryk, Chester Bennington, Jon Cor, Larissa Gomes
Productora:Lionsgate Films / Twisted Pictures
Género: Terror | Gore. Asesinos en serie. Secuestros / Desapariciones. 3-D. Secuela
Sinopsis: Mientras estalla una mortal batalla a causa del legado de Jigsaw, un grupo de supervivientes busca el apoyo de Bobby Dagen, gurú de la auto-ayuda, un hombre con oscuros secretos que desatará una nueva oleada de terror.
http://www.imdb.com/title/tt1477076
Trailer
https://youtu.be/wBCSASJrB6I


Cita:


Format : Matroska
Format version : Version 4 / Version 2
File size : 13.0 GiB
Duration : 1 h 30 min
Overall bit rate : 20.7 Mb/s
Encoded date : UTC 2017-09-21 08:31:46
Writing application : mkvmerge v15.0.0 ('Duel with the Devil') 64-bit
Writing library : libebml v1.3.5 + libmatroska v1.4.5
Video
ID : 1
Format : AVC
Format/Info : Advanced Video Codec
Format profile : High@L4.1
Format settings, CABAC : Yes
Format settings, ReFrames : 4 frames
Codec ID : V_MPEG4/ISO/AVC
Duration : 1 h 30 min
Bit rate : 14.7 Mb/s
Width : 1 920 pixels
Height : 1 080 pixels
Display aspect ratio : 16:9
Frame rate mode : Constant
Frame rate : 23.976 (24000/1001) FPS
Color space : YUV
Chroma subsampling : 4:2:0
Bit depth : 8 bits
Scan type : Progressive
Bits/(Pixel*Frame) : 0.296
Stream size : 9.27 GiB (71%)
Title : SAW: The Final Chapter (2010) UNRATED 1080p
Writing library : x264 core 148 r2579 73ae2d1
Language : English
Default : Yes
Forced : No
Color range : Limited
Color primaries : BT.709
Transfer characteristics : BT.709
Matrix coefficients : BT.709
Audio #1
ID : 2
Format : AC-3
Format/Info : Audio Coding 3
Mode extension : CM (complete main)
Format settings, Endianness : Big
Codec ID : A_AC3
Duration : 1 h 30 min
Bit rate mode : Constant
Bit rate : 384 kb/s
Channel(s) : 2 channels
Channel positions : Front: L R
Sampling rate : 44.1 kHz
Frame rate : 28.711 FPS (1536 spf)
Bit depth : 16 bits
Compression mode : Lossy
Stream size : 248 MiB (2%)
Title : AC 3-(2.0) DVD
Language : Spanish
Default : Yes
Forced : No
Audio #2
ID : 3
Format : DTS
Format/Info : Digital Theater Systems
Format profile : MA / Core
Mode : 16
Format settings, Endianness : Big
Codec ID : A_DTS
Duration : 1 h 30 min
Bit rate mode : Variable / Constant
Bit rate : 5 550 kb/s / 1 509 kb/s
Channel(s) : 8 channels / 6 channels
Channel positions : Front: L C R, Side: L R, Back: L R, LFE / Front: L C R, Side: L R, LFE
Sampling rate : 48.0 kHz
Frame rate : 93.750 FPS (512 spf)
Bit depth : 24 bits
Compression mode : Lossless / Lossy
Stream size : 3.50 GiB (27%)
Title : DTS HD MA-(7.1) BluRay
Language : English
Default : No
Forced : No
Text #1
ID : 4
Format : UTF-8
Codec ID : S_TEXT/UTF8
Codec ID/Info : UTF-8 Plain Text
Duration : 53 min 22 s
Bit rate : 1 b/s
Count of elements : 17
Stream size : 443 Bytes (0%)
Title : Forz
Language : Spanish
Default : Yes
Forced : No
Text #2
ID : 5
Format : UTF-8
Codec ID : S_TEXT/UTF8
Codec ID/Info : UTF-8 Plain Text
Duration : 1 h 24 min
Bit rate : 45 b/s
Count of elements : 1008
Stream size : 28.0 KiB (0%)
Language : Spanish
Default : No
Forced : No



SAW The Final Chapter [2010]  FullHD 1080p  [Ing-Lat]
SAW The Final Chapter [2010]  FullHD 1080p  [Ing-Lat]

SAW The Final Chapter [2010]  FullHD 1080p  [Ing-Lat]
Para poder ver los links necesitas estar Registrado . O.. ya tienes cuenta? Logueate!

Puntos agregados!

0 Puntos

Votos: 0 - T! score: 0/10

35

Visitas

0

Favoritos

0

Medallas

0

Seguidores

0 Comentarios

Cargando comentarios espera un momento...
Para poder comentar necesitas estar Registrado. O.. ya tienes usuario? Logueate!
Tu comentario fue agreado correctamente