SAW IV [2007] FullHD 1080p [Ing-Lat]

TV, Peliculas y series | Más de 2 meses
0
0
0


SAW IV [2007]  FullHD 1080p  [Ing-Lat]

Título original: Saw IV
Año: 2007
Duración: 1 h 35 min
País: Estados Unidos
Director: Darren Lynn Bousman
Guión: Marcus Dunstan, Patrick Melton
Música: Charlie Clouser
Fotografía: David A. Armstrong
Reparto: Tobin Bell, Lyriq Bent, Costas Mandylor, Scott Patterson, Angus Macfadyen, Justin Louis, Sarain Boylan, Betsy Russell, Athena Karkanis, Simon Reynolds, Mike Realba, Marty Adams, Bahar Soomekh, Shawnee Smith
Productora: Lionsgate Films / Twisted Pictures
Género: Terror. Intriga. Thriller | Gore. Asesinos en serie. Secuela. Secuestros / Desapariciones
Sinopsis: Jigsaw y su aprendiz Amanda están muertos. Ahora, luego de hacerse público el asesinato de la detective Kerry, dos agentes del FBI, el Agente Strahn y el Agente Pérez, llegan a la aterrorizada comunidad para ayudar al veterano detective Hoffman a examinar minuciosamente los restos grisáceos que quedaron de Jigsaw, y así resolver el rompecabezas. Sin embargo, cuando el Comandante Rigg, perteneciente a la brigada especial SWAT, es secuestrado y empujado dentro del juego, contará con tan solo noventa minutos para triunfar en una serie de trampas dementes y salvar a un viejo amigo o enfrentar las consecuencias mortales...
https://www.imdb.com/title/tt0890870
Trailer
https://youtu.be/hQ7JF5JZkoo


Cita:


Format : Matroska
Format version : Version 4 / Version 2
File size : 13.2 GiB
Duration : 1 h 35 min
Overall bit rate : 19.9 Mb/s
Encoded date : UTC 2017-09-12 22:39:05
Writing application : mkvmerge v15.0.0 ('Duel with the Devil') 64-bit
Writing library : libebml v1.3.5 + libmatroska v1.4.5
Video
ID : 1
Format : AVC
Format/Info : Advanced Video Codec
Format profile : High@L4.1
Format settings, CABAC : Yes
Format settings, ReFrames : 4 frames
Codec ID : V_MPEG4/ISO/AVC
Duration : 1 h 35 min
Bit rate : 13.8 Mb/s
Width : 1 920 pixels
Height : 1 080 pixels
Display aspect ratio : 16:9
Frame rate mode : Constant
Frame rate : 23.976 (24000/1001) FPS
Color space : YUV
Chroma subsampling : 4:2:0
Bit depth : 8 bits
Scan type : Progressive
Bits/(Pixel*Frame) : 0.278
Stream size : 9.23 GiB (70%)
Title : SAW IV (2007) UNRATED 1080p
Writing library : x264 core 148 r2579 73ae2d1
Language : English
Default : Yes
Forced : No
Color range : Limited
Color primaries : BT.709
Transfer characteristics : BT.709
Matrix coefficients : BT.709
Audio #1
ID : 2
Format : AC-3
Format/Info : Audio Coding 3
Mode extension : CM (complete main)
Format settings, Endianness : Big
Codec ID : A_AC3
Duration : 1 h 35 min
Bit rate mode : Constant
Bit rate : 448 kb/s
Channel(s) : 6 channels
Channel positions : Front: L C R, Side: L R, LFE
Sampling rate : 48.0 kHz
Frame rate : 31.250 FPS (1536 spf)
Bit depth : 16 bits
Compression mode : Lossy
Stream size : 306 MiB (2%)
Title : Latin-AC 3-(5.1) DVD
Language : Spanish
Default : Yes
Forced : No
Audio #2
ID : 3
Format : DTS
Format/Info : Digital Theater Systems
Format profile : MA / Core
Mode : 16
Format settings, Endianness : Big
Codec ID : A_DTS
Duration : 1 h 35 min
Bit rate mode : Variable / Constant
Bit rate : 5 566 kb/s / 1 509 kb/s
Channel(s) : 8 channels / 6 channels
Channel positions : Front: L C R, Side: L R, Back: L R, LFE / Front: L C R, Side: L R, LFE
Sampling rate : 48.0 kHz
Frame rate : 93.750 FPS (512 spf)
Bit depth : 24 bits
Compression mode : Lossless / Lossy
Stream size : 3.71 GiB (28%)
Title : DTS HD MA-(7.1) BluRay
Language : English
Default : No
Forced : No
Text #1
ID : 4
Format : UTF-8
Codec ID : S_TEXT/UTF8
Codec ID/Info : UTF-8 Plain Text
Duration : 1 h 24 min
Bit rate : 2 b/s
Count of elements : 48
Stream size : 1.53 KiB (0%)
Title : Forz
Language : Spanish
Default : Yes
Forced : No
Text #2
ID : 5
Format : UTF-8
Codec ID : S_TEXT/UTF8
Codec ID/Info : UTF-8 Plain Text
Duration : 1 h 27 min
Bit rate : 48 b/s
Count of elements : 1004
Stream size : 31.4 KiB (0%)
Language : Spanish
Default : No
Forced : No
Text #3
ID : 6
Format : UTF-8
Codec ID : S_TEXT/UTF8
Codec ID/Info : UTF-8 Plain Text
Duration : 1 h 27 min
Bit rate : 46 b/s
Count of elements : 992
Stream size : 30.1 KiB (0%)
Language : English
Default : No
Forced : No



SAW IV [2007]  FullHD 1080p  [Ing-Lat]
SAW IV [2007]  FullHD 1080p  [Ing-Lat]

SAW IV [2007]  FullHD 1080p  [Ing-Lat]
Para poder ver los links necesitas estar Registrado . O.. ya tienes cuenta? Logueate!

Puntos agregados!

0 Puntos

Votos: 0 - T! score: 0/10

36

Visitas

0

Favoritos

0

Medallas

0

Seguidores

0 Comentarios

Cargando comentarios espera un momento...
Para poder comentar necesitas estar Registrado. O.. ya tienes usuario? Logueate!
Tu comentario fue agreado correctamente