TRON Legacy [2010] 3D H-SBS 1080p [Ing-Lat]

TV, Peliculas y series | Más de 3 meses
0
0
0


TRON Legacy [2010] 3D H-SBS 1080p [Ing-Lat]

TITULO ORIGINAL: TRON: Legacy - TR2N (Tron 2)
ANO: 2010
DURACION: 125 min.
PAIS: USA
DIRECTOR: Joseph Kosinski
GUION: Adam Horowitz, Richard Jefferies, Edward Kitsis, Brian Klugman, Steven Lisberger, Lee Sternthal
REPARTO: Garrett Hedlund, Jeff Bridges, Olivia Wilde, Michael Sheen, James Frain, Bruce Boxleitner, Beau Garrett, Anis Cheurfa, Conrad Coates, Daft Punk, Serinda Swan, Yaya DaCosta, Amy Esterle, Brandon Jay McLaren, Elizabeth Mathis, Michael Teigen, Steven Lisberger, Owen Best
PRODUCTORA: Walt Disney Pictures
GENERO: Ciencia ficcion. Accion | Cyberpunk. 3-D. Videojuego. Anos 80. Secuela
SINOPSIS: Cuando Sam Flynn (Garrett Hedlund), un experto programador de 27 anos, investiga la desaparicion de su padre, Kevin Flynn (Jeff Bridges), se encuentra de repente inmerso en un peligroso y salvaje mundo surrealista, un mundo paralelo donde su padre ha vivido durante 25 anos. Con la ayuda de una joven (Olivia Wilde), padre e hijo emprenden un viaje a vida o muerte, a traves de un sofisticado universo cibernetico. Secuela del clasico de culto de 1982.
http://www.imdb.com/title/tt1104001/
https://www.youtube.com/watch?v=wnYhtRGcfcQ

Cita:


General
Format : Matroska
Format version : Version 2
File size : 12.3 GiB
Duration : 2h 5mn
Overall bit rate : 14.0 Mbps
Encoded date : UTC 2012-11-01 02:20:35
Writing application : mkvmerge v5.7.0 ('The Whirlwind') built on Jul 8 2012 20:08:51
Writing library : libebml v1.2.3 + libmatroska v1.3.0
Video
ID : 1
Format : AVC
Format/Info : Advanced Video Codec
Format profile : High@L4.1
Format settings, CABAC : Yes
Format settings, ReFrames : 4 frames
Codec ID : V_MPEG4/ISO/AVC
Duration : 2h 5mn
Bit rate : 11.0 Mbps
Width : 1 920 pixels
Height : 1 080 pixels
Display aspect ratio : 16:9
Frame rate : 23.976 fps
Color space : YUV
Chroma subsampling : 4:2:0
Bit depth : 8 bits
Scan type : Progressive
Bits/(Pixel*Frame) : 0.221
Stream size : 9.59 GiB (78%)
Writing library : x264 core 114 r1913 5fd3dce
Language : English
Default : Yes
Forced : No
Audio #1
ID : 2
Format : AC-3
Format/Info : Audio Coding 3
Mode extension : CM (complete main)
Codec ID : A_AC3
Duration : 2h 5mn
Bit rate mode : Constant
Bit rate : 640 Kbps
Channel(s) : 6 channels
Channel positions : Front: L C R, Side: L R, LFE
Sampling rate : 48.0 KHz
Bit depth : 16 bits
Compression mode : Lossy
Stream size : 573 MiB (5%)
Title : AC3 5.1
Language : Spanish
Default : Yes
Forced : No
Audio #2
ID : 3
Format : AC-3
Format/Info : Audio Coding 3
Mode extension : CM (complete main)
Codec ID : A_AC3
Duration : 2h 5mn
Bit rate mode : Constant
Bit rate : 640 Kbps
Channel(s) : 6 channels
Channel positions : Front: L C R, Side: L R, LFE
Sampling rate : 48.0 KHz
Bit depth : 16 bits
Compression mode : Lossy
Stream size : 573 MiB (5%)
Title : AC3 5.1
Language : English
Default : No
Forced : No
Audio #3
ID : 4
Format : DTS
Format/Info : Digital Theater Systems
Codec ID : A_DTS
Duration : 2h 5mn
Bit rate mode : Constant
Bit rate : 1 510 Kbps
Channel(s) : 6 channels
Channel positions : Front: L C R, Side: L R, LFE
Sampling rate : 48.0 KHz
Bit depth : 24 bits
Compression mode : Lossy
Stream size : 1.32 GiB (11%)
Title : DTS 5.1
Language : English
Default : No
Forced : No
Text #1
ID : 5
Format : UTF-8
Codec ID : S_TEXT/UTF8
Codec ID/Info : UTF-8 Plain Text
Language : Spanish
Default : No
Forced : No
Text #2
ID : 6
Format : UTF-8
Codec ID : S_TEXT/UTF8
Codec ID/Info : UTF-8 Plain Text
Language : English
Default : No
Forced : No



TRON Legacy [2010] 3D H-SBS 1080p [Ing-Lat]
TRON Legacy [2010] 3D H-SBS 1080p [Ing-Lat]

TRON Legacy [2010] 3D H-SBS 1080p [Ing-Lat]
Para poder ver los links necesitas estar Registrado . O.. ya tienes cuenta? Logueate!

Puntos agregados!

0 Puntos

Votos: 0 - T! score: 0/10

35

Visitas

0

Favoritos

0

Medallas

0

Seguidores