Thor The Dark World [2013] 3D H-SBS 1080p [Ing-Lat]

TV, Peliculas y series | Más de 3 meses
0
0
0


Thor The Dark World [2013] 3D H-SBS 1080p [Ing-Lat]

TITULO ORIGINAL: Thor: The Dark World (Thor 2)
ANO: 2013
DURACION: 112 min.
PAIS: USA
DIRECTOR: Alan Taylor
GUION: Alan Taylor
REPARTO: Chris Hemsworth, Natalie Portman, Anthony Hopkins, Tom Hiddleston, Christopher Eccleston, Idris Elba, Kat Dennings, Adewale Akinnuoye-Agbaje, Jaimie Alexander, Tadanobu Asano, Stellan Skarsg�rd, Ray Stevenson, Alice Krige, Zachary Levi, Chris ODowd, Stan Lee
PRODUCTORA: Marvel Entertainment / Marvel Studios
GENERO: Fantastico. Accion. Aventuras | Mitologia. Superheroes. Comic. Marvel Comics. Secuela. 3-D
Sinopsis: En "Thor: El mundo oscuro", Thor lucha por restablecer el orden en todo el cosmos� pero una antigua raza liderada por el vengativo Malekith regresa para volver a sumir al universo en la oscuridad. Thor se enfrenta a un enemigo al que ni siquiera Odin y Asgard pueden hacer frente, y debera embarcarse en su viaje mas peligroso a la vez que personal. En este viaje se reunira con Jane Foster y le obligara a sacrificarlo todo para salvar el mundo.
http://www.imdb.com/title/tt1981115/
https://youtu.be/WbgIfB_fdNg

Cita:


General
Format : Matroska
Format version : Version 2
File size : 11.5 GiB
Duration : 1h 52mn
Overall bit rate : 14.7 Mbps
Encoded date : UTC 2014-02-07 01:55:00
Writing application : mkvmerge v5.7.0 (The Whirlwind) built on Jul 8 2012 20:08:51
Writing library : libebml v1.2.3 + libmatroska v1.3.0
Video
ID : 1
Format : AVC
Format/Info : Advanced Video Codec
Format profile : High@L4.1
Format settings, CABAC : Yes
Format settings, ReFrames : 2 frames
Muxing mode : Header stripping
Codec ID : V_MPEG4/ISO/AVC
Duration : 1h 52mn
Bit rate : 11.6 Mbps
Width : 1 920 pixels
Height : 1 080 pixels
Display aspect ratio : 16:9
Frame rate mode : Constant
Frame rate : 23.976 fps
Color space : YUV
Chroma subsampling : 4:2:0
Bit depth : 8 bits
Scan type : Progressive
Bits/(Pixel*Frame) : 0.234
Stream size : 9.11 GiB (79%)
Writing library : x264 core
Language : English
Default : Yes
Forced : No
Color primaries : BT.709
Transfer characteristics : BT.709
Matrix coefficients : BT.709
Audio #1
ID : 2
Format : AC-3
Format/Info : Audio Coding 3
Mode extension : CM (complete main)
Format settings, Endianness : Big
Muxing mode : Header stripping
Codec ID : A_AC3
Duration : 1h 52mn
Bit rate mode : Constant
Bit rate : 640 Kbps
Channel(s) : 6 channels
Channel positions : Front: L C R, Side: L R, LFE
Sampling rate : 48.0 KHz
Bit depth : 16 bits
Compression mode : Lossy
Stream size : 513 MiB (4%)
Title : AC3
Language : Spanish
Default : Yes
Forced : No
Audio #2
ID : 3
Format : AC-3
Format/Info : Audio Coding 3
Mode extension : CM (complete main)
Format settings, Endianness : Big
Muxing mode : Header stripping
Codec ID : A_AC3
Duration : 1h 52mn
Bit rate mode : Constant
Bit rate : 640 Kbps
Channel(s) : 6 channels
Channel positions : Front: L C R, Side: L R, LFE
Sampling rate : 48.0 KHz
Bit depth : 16 bits
Compression mode : Lossy
Stream size : 513 MiB (4%)
Title : AC3
Language : English
Default : No
Forced : No
Audio #3
ID : 4
Format : DTS
Format/Info : Digital Theater Systems
Mode : 16
Format settings, Endianness : Big
Muxing mode : Header stripping
Codec ID : A_DTS
Duration : 1h 52mn
Bit rate mode : Constant
Bit rate : 1 509 Kbps
Channel(s) : 6 channels
Channel positions : Front: L C R, Side: L R, LFE
Sampling rate : 48.0 KHz
Bit depth : 24 bits
Compression mode : Lossy
Stream size : 1.18 GiB (10%)
Title : DTS
Language : English
Default : No
Forced : No
Text #1
ID : 5
Format : VobSub
Muxing mode : zlib
Codec ID : S_VOBSUB
Codec ID/Info : The same subtitle format used on DVDs
Title : Forz
Language : Spanish
Default : Yes
Forced : No
Text #2
ID : 6
Format : VobSub
Muxing mode : zlib
Codec ID : S_VOBSUB
Codec ID/Info : The same subtitle format used on DVDs
Title : Complet
Language : Spanish
Default : No
Forced : No



Thor The Dark World [2013] 3D H-SBS 1080p [Ing-Lat]
Thor The Dark World [2013] 3D H-SBS 1080p [Ing-Lat]
Thor The Dark World [2013] 3D H-SBS 1080p [Ing-Lat]
Thor The Dark World [2013] 3D H-SBS 1080p [Ing-Lat]

Thor The Dark World [2013] 3D H-SBS 1080p [Ing-Lat]
Para poder ver los links necesitas estar Registrado . O.. ya tienes cuenta? Logueate!

Puntos agregados!

0 Puntos

Votos: 0 - T! score: 0/10

37

Visitas

0

Favoritos

0

Medallas

0

Seguidores

0 Comentarios

Cargando comentarios espera un momento...
Para poder comentar necesitas estar Registrado. O.. ya tienes usuario? Logueate!
Tu comentario fue agreado correctamente