The Smurfs 2 [2013] 3D H-SBS 1080p [Ing-Lat]

TV, Peliculas y series | Más de 3 meses
0
0
0


The Smurfs 2 [2013] 3D H-SBS 1080p [Ing-Lat]

TITULO ORIGINAL: The Smurfs 2
ANO: 2013
DURACION: 105 min.
PAIS: USA
DIRECTOR: Raja Gosnell
GUION: Karey Kirkpatrick, David Ronn, Jay Scherick, J. David Stem, David N. Weiss
REPARTO: Animation, Neil Patrick Harris, Jayma Mays, Hank Azaria, Brendan Gleeson
PRODUCTORA: Kerner Entertainment Company / Columbia Pictures / Sony Pictures Animation
GENERO: Animacion. Comedia. Infantil | Comic. Cine familiar. 3-D. Secuela
https://www.imdb.com/title/tt2017020/
Sinopsis: El malvado brujo Gargamel crea una pareja de criaturas revoltosas, una copia de los pitufos, llamados los Malotes, y que espera le permitan aprovecharse de su poderosa y magica esencia. Pero cuando descubre que solo un autentico Pitufo le puede dar lo que quiere �y que solamente un secreto que conoce Pitufina puede transformar a los Malotes en verdaderos pitufos- Gargamel secuestra a Pitufina y la lleva a Paris. Por lo que esta' en manos de Papa' Pitufo, Torpe, Grunon y Vanidoso regresar a nuestro mundo, y reunirse con sus amigos humanos Patrick y Grace Winslow, �y rescatarla!
Trailer
https://www.youtube.com/watch?v=L7ufq-iS6pY


Cita:


General
Format : Matroska
Format version : Version 2
File size : 10.3 GiB
Duration : 1h 44mn
Overall bit rate : 14.1 Mbps
Encoded date : UTC 2013-11-16 21:54:15
Writing application : mkvmerge v5.7.0 ('The Whirlwind') built on Jul 8 2012 20:08:51
Writing library : libebml v1.2.3 + libmatroska v1.3.0
Video
ID : 1
Format : AVC
Format/Info : Advanced Video Codec
Format profile : High@L4.1
Format settings, CABAC : Yes
Format settings, ReFrames : 2 frames
Codec ID : V_MPEG4/ISO/AVC
Duration : 1h 44mn
Bit rate : 11.2 Mbps
Width : 1 920 pixels
Height : 1 080 pixels
Display aspect ratio : 16:9
Frame rate mode : Constant
Frame rate : 23.976 fps
Color space : YUV
Chroma subsampling : 4:2:0
Bit depth : 8 bits
Scan type : Progressive
Bits/(Pixel*Frame) : 0.225
Stream size : 8.21 GiB (80%)
Writing library : x264 core
Language : English
Default : Yes
Forced : No
Color primaries : BT.709
Transfer characteristics : BT.709
Matrix coefficients : BT.709
Audio #1
ID : 2
Format : AC-3
Format/Info : Audio Coding 3
Mode extension : CM (complete main)
Format settings, Endianness : Big
Codec ID : A_AC3
Duration : 1h 44mn
Bit rate mode : Constant
Bit rate : 448 Kbps
Channel(s) : 6 channels
Channel positions : Front: L C R, Side: L R, LFE
Sampling rate : 48.0 KHz
Bit depth : 16 bits
Compression mode : Lossy
Stream size : 336 MiB (3%)
Title : AC3
Language : Spanish
Default : Yes
Forced : No
Audio #2
ID : 3
Format : AC-3
Format/Info : Audio Coding 3
Mode extension : CM (complete main)
Format settings, Endianness : Big
Codec ID : A_AC3
Duration : 1h 44mn
Bit rate mode : Constant
Bit rate : 640 Kbps
Channel(s) : 6 channels
Channel positions : Front: L C R, Side: L R, LFE
Sampling rate : 48.0 KHz
Bit depth : 16 bits
Compression mode : Lossy
Stream size : 480 MiB (5%)
Title : AC3
Language : English
Default : No
Forced : No
Audio #3
ID : 4
Format : DTS
Format/Info : Digital Theater Systems
Mode : 16
Format settings, Endianness : Big
Codec ID : A_DTS
Duration : 1h 44mn
Bit rate mode : Constant
Bit rate : 1 509 Kbps
Channel(s) : 6 channels
Channel positions : Front: L C R, Side: L R, LFE
Sampling rate : 48.0 KHz
Bit depth : 24 bits
Compression mode : Lossy
Stream size : 1.11 GiB (11%)
Title : DTS
Language : English
Default : No
Forced : No
Text
ID : 5
Format : VobSub
Muxing mode : zlib
Codec ID : S_VOBSUB
Codec ID/Info : The same subtitle format used on DVDs
Title : 3D
Language : Spanish
Default : No
Forced : No



The Smurfs 2 [2013] 3D H-SBS 1080p [Ing-Lat]
The Smurfs 2 [2013] 3D H-SBS 1080p [Ing-Lat]

The Smurfs 2 [2013] 3D H-SBS 1080p [Ing-Lat]
Katfile, Uploaded, Rapidgator

**Todos los Enlaces Estan en Lupaste:
Para poder ver los links necesitas estar Registrado . O.. ya tienes cuenta? Logueate!

Puntos agregados!

0 Puntos

Votos: 0 - T! score: 0/10

31

Visitas

0

Favoritos

0

Medallas

0

Seguidores

0 Comentarios

Cargando comentarios espera un momento...
Para poder comentar necesitas estar Registrado. O.. ya tienes usuario? Logueate!
Tu comentario fue agreado correctamente