Pan [2015] 3D H-SBS 1080p [Ing-Lat]

TV, Peliculas y series | Más de 3 meses
0
0
0


Pan [2015] 3D H-SBS 1080p [Ing-Lat]

Titulo original: Pan
Ano: 2015
Duracion: 111 min.
Pais: Estados Unidos
Director: Joe Wright
Guion: Jason Fuchs (Personajes: J.M. Barrie)
Musica: John Powell
Fotografia: John Mathieson, Seamus McGarvey
Reparto: Levi Miller, Garrett Hedlund, Hugh Jackman, Rooney Mara, Amanda Seyfried, Adeel Akhtar, Nonso Anozie, Cara Delevingne, Kathy Burke, Jack Lowden, Jimmy Vee, Phill Martin, Ami Metcalf, Jack Charles
Productora: Berlanti Productions / Dune Entertainment; Distribuida por Warner Bros.
Genero: Fantastico. Accion. Aventuras | Cuentos. 3-D. Precuela
Sinopsis: Peter, un chico rebelde de 12 anos, ha pasado toda su vida en un sombrio orfanato de Londres. Durante una noche delirante, se ve transportado desde el orfanato a un mundo fantastico de piratas, guerreros y hadas llamado Nunca Jamas. Mientras vive extraordinarias aventuras, intenta descubrir por que su madre lo abandono en el orfanato despues de nacer. En compania de la guerrera Tigrilla y de su nuevo amigo el Capitan Garfio, Peter debe derrotar al implacable pirata Barbanegra para salvar el pais de Nunca Jamas y descubrir su autentico destino: convertirse en el heroe que sera conocido para siempre con el nombre de Peter Pan.
http://www.imdb.com/title/tt3332064/
Trailer
https://youtu.be/n6eXEZ-rUes


Cita:


General
Format : Matroska
Format version : Version 4 / Version 2
File size : 8.44 GiB
Duration : 1h 51mn
Overall bit rate : 10.8 Mbps
Encoded date : UTC 2015-12-24 10:31:31
Writing application : mkvmerge v7.1.0 (Good Love) 64bit built on Jul 27 2014 13:06:55
Writing library : libebml v1.3.0 + libmatroska v1.4.1
Video
ID : 1
Format : AVC
Format/Info : Advanced Video Codec
Format profile : High@L4.1
MultiView_Count : 2
MultiView_Layout : Side by Side (left eye first)
Format settings, CABAC : Yes
Format settings, ReFrames : 5 frames
Codec ID : V_MPEG4/ISO/AVC
Duration : 1h 51mn
Bit rate : 9 550 Kbps
Width : 1 920 pixels
Height : 800 pixels
Display aspect ratio : 2.40:1
Frame rate mode : Constant
Frame rate : 23.976 fps
Color space : YUV
Chroma subsampling : 4:2:0
Bit depth : 8 bits
Scan type : Progressive
Bits/(Pixel*Frame) : 0.259
Stream size : 7.27 GiB (86%)
Writing library : x264 core 148 r2638 7599210
Language : English
Default : Yes
Forced : No
Audio #1
ID : 2
Format : AC-3
Format/Info : Audio Coding 3
Mode extension : CM (complete main)
Format settings, Endianness : Big
Codec ID : A_AC3
Duration : 1h 51mn
Bit rate mode : Constant
Bit rate : 640 Kbps
Channel(s) : 6 channels
Channel positions : Front: L C R, Side: L R, LFE
Sampling rate : 48.0 KHz
Bit depth : 16 bits
Compression mode : Lossy
Stream size : 511 MiB (6%)
Title : Latin AC3 5.1 Bluray
Language : Spanish
Default : Yes
Forced : No
Audio #2
ID : 3
Format : AC-3
Format/Info : Audio Coding 3
Mode extension : CM (complete main)
Format settings, Endianness : Big
Codec ID : A_AC3
Duration : 1h 51mn
Bit rate mode : Constant
Bit rate : 640 Kbps
Channel(s) : 6 channels
Channel positions : Front: L C R, Side: L R, LFE
Sampling rate : 48.0 KHz
Bit depth : 16 bits
Compression mode : Lossy
Stream size : 511 MiB (6%)
Title : AC3 5.1
Language : English
Default : No
Forced : No
Text
ID : 4
Format : UTF-8
Codec ID : S_TEXT/UTF8
Codec ID/Info : UTF-8 Plain Text
Language : Spanish
Default : No
Forced : No



Pan [2015] 3D H-SBS 1080p [Ing-Lat]
Pan [2015] 3D H-SBS 1080p [Ing-Lat]
Pan [2015] 3D H-SBS 1080p [Ing-Lat]
Pan [2015] 3D H-SBS 1080p [Ing-Lat]

Pan [2015] 3D H-SBS 1080p [Ing-Lat]
Katfile, Uploaded, Rapidgator

**Todos los Enlaces Estan en Lupaste:

Para poder ver los links necesitas estar Registrado . O.. ya tienes cuenta? Logueate!

Puntos agregados!

0 Puntos

Votos: 0 - T! score: 0/10

40

Visitas

0

Favoritos

0

Medallas

0

Seguidores

0 Comentarios

Cargando comentarios espera un momento...
Para poder comentar necesitas estar Registrado. O.. ya tienes usuario? Logueate!
Tu comentario fue agreado correctamente