Hansel and Gretel Witch Hunters [2013] 3D H-SBS 1080p [Ing-L

TV, Peliculas y series | Hace 27 días
0
0
0

Hansel and Gretel Witch Hunters [2013] 3D H-SBS 1080p [Ing-L

TITULO ORIGINAL: Hansel and Gretel: Witch Hunters
ANO: 2013
DURACION: 88 min.
PAIS: USA
DIRECTOR: Tommy Wirkola
https://www.imdb.com/title/tt1428538/
GUION: Dante Harper, Tommy Wirkola
REPARTO: Jeremy Renner, Gemma Arterton, Peter Stormare, Famke Janssen, Zoe Bell, Derek Mears, Ingrid Bolsø Berdal (AKA Ingrid Bolso Berdal)
PRODUCTORA: Coproduccion EEUU-Alemania; MGM / Siebzehnte Babelsberg / Gary Sanchez Productions
GENERO: Fantastico. Aventuras. Terror. Accion | Brujeria. Cuentos. 3-D
Han pasado quince anos desde que Hansel (Jeremy Renner) y Gretel (Gemma Arterton) vivieron la aventura que los hizo famosos. Tras probar el sabor de la sangre siendo unos ninos, ambos se han convertido en unos autenticos justicieros, dispuestos a todo para vengarse. Pero ahora, sin que ellos lo sepan, tambien se han convertido en la presa, y tienen que enfrentarse a algo mucho mas siniestro que las brujas: su pasado.
https://www.youtube.com/watch?v=7kGc5onmaUE


Cita:


General
Format : Matroska
Format version : Version 2
File size : 8.43 GiB
Duration : 1h 27mn
Overall bit rate : 13.7 Mbps
Encoded date : UTC 2013-05-16 21:15:16
Writing application : mkvmerge v5.7.0 ('The Whirlwind') built on Jul 8 2012 20:08:51
Writing library : libebml v1.2.3 + libmatroska v1.3.0
Video
ID : 1
Format : AVC
Format/Info : Advanced Video Codec
Format profile : High@L4.1
Format settings, CABAC : Yes
Format settings, ReFrames : 2 frames
Codec ID : V_MPEG4/ISO/AVC
Duration : 1h 27mn
Bit rate : 12.2 Mbps
Width : 1 920 pixels
Height : 1 080 pixels
Display aspect ratio : 16:9
Frame rate mode : Constant
Frame rate : 23.976 fps
Color space : YUV
Chroma subsampling : 4:2:0
Bit depth : 8 bits
Scan type : Progressive
Bits/(Pixel*Frame) : 0.245
Stream size : 7.47 GiB (89%)
Writing library : x264 core
Language : English
Default : Yes
Forced : No
Color primaries : BT.709
Transfer characteristics : BT.709
Matrix coefficients : BT.709
Audio #1
ID : 2
Format : AC-3
Format/Info : Audio Coding 3
Mode extension : CM (complete main)
Format settings, Endianness : Big
Codec ID : A_AC3
Duration : 1h 27mn
Bit rate mode : Constant
Bit rate : 640 Kbps
Channel(s) : 6 channels
Channel positions : Front: L C R, Side: L R, LFE
Sampling rate : 48.0 KHz
Bit depth : 16 bits
Compression mode : Lossy
Stream size : 403 MiB (5%)
Language : Spanish
Default : Yes
Forced : No
Audio #2
ID : 3
Format : AC-3
Format/Info : Audio Coding 3
Mode extension : CM (complete main)
Format settings, Endianness : Big
Codec ID : A_AC3
Duration : 1h 27mn
Bit rate mode : Constant
Bit rate : 640 Kbps
Channel(s) : 6 channels
Channel positions : Front: L C R, Side: L R, LFE
Sampling rate : 48.0 KHz
Bit depth : 16 bits
Compression mode : Lossy
Stream size : 403 MiB (5%)
Language : English
Default : No
Forced : No
Text #1
ID : 4
Format : UTF-8
Codec ID : S_TEXT/UTF8
Codec ID/Info : UTF-8 Plain Text
Language : Spanish
Default : Yes
Forced : No
Text #2
ID : 5
Format : UTF-8
Codec ID : S_TEXT/UTF8
Codec ID/Info : UTF-8 Plain Text
Language : Spanish
Default : No
Forced : No



Hansel and Gretel Witch Hunters [2013] 3D H-SBS 1080p [Ing-L
Hansel and Gretel Witch Hunters [2013] 3D H-SBS 1080p [Ing-L

Hansel and Gretel Witch Hunters [2013] 3D H-SBS 1080p [Ing-L

Katfile, Uploaded, Rapidgator

**Todos los Enlaces Estan en Lupaste:

Para poder ver los links necesitas estar Registrado . O.. ya tienes cuenta? Logueate!

Puntos agregados!

0 Puntos

Votos: 0 - T! score: 0/10

20

Visitas

0

Favoritos

0

Medallas

0

Seguidores

0 Comentarios

Cargando comentarios espera un momento...
Para poder comentar necesitas estar Registrado. O.. ya tienes usuario? Logueate!
Tu comentario fue agreado correctamente