Despicable Me [2010] 3D H-SBS 1080p [Ing-Lat]

TV, Peliculas y series | Más de 1 mes
0
0
0

Despicable Me [2010] 3D H-SBS 1080p [Ing-Lat]

TITULO ORIGINAL: Despicable Me
ANO: 2010
DURACION: 95 min.
PAIS: USA
DIRECTOR: Pierre Coffin, Chris Renaud, Sergio Pablos
GUION: Ken Daurio, Cinco Paul
REPARTO: Animation
PRODUCTORA: Illumination Entertainment
GENERO: Animacion. Comedia. Ciencia ficcion. Infantil | Adopcion. 3-D
Sinopsis: Gru (voz de Steve Carell) es un hombre deplorable que planea el acto criminal mas increible de la Historia: robar la Luna. Incitado por una madre malvada (voz de Julie Andrews), solo encontrara un obstaculo en su camino: tres ninas huerfanas a las que tenda que cuidar temporalmente
https://www.imdb.com/title/tt1323594/
Trailer
https://www.youtube.com/watch?v=9pqXmEUlW4M


Cita:


General
Format : Matroska
Format version : Version 2
File size : 6.15 GiB
Duration : 1h 34mn
Overall bit rate : 9 290 Kbps
Encoded date : UTC 2013-01-31 20:51:28
Writing application : mkvmerge v5.7.0 (The Whirlwind) built on Jul 8 2012 20:08:51
Writing library : libebml v1.2.3 + libmatroska v1.3.0
Video
ID : 1
Format : AVC
Format/Info : Advanced Video Codec
Format profile : High@L4.1
Format settings, CABAC : Yes
Format settings, ReFrames : 4 frames
Codec ID : V_MPEG4/ISO/AVC
Duration : 1h 34mn
Bit rate : 6 572 Kbps
Width : 1 920 pixels
Height : 1 080 pixels
Display aspect ratio : 16:9
Frame rate mode : Constant
Frame rate : 23.976 fps
Color space : YUV
Chroma subsampling : 4:2:0
Bit depth : 8 bits
Scan type : Progressive
Bits/(Pixel*Frame) : 0.132
Stream size : 4.35 GiB (71%)
Writing library : x264 core 110 r1820 fdcf2ae
Language : English
Default : Yes
Forced : No
Audio #1
ID : 2
Format : AC-3
Format/Info : Audio Coding 3
Mode extension : CM (complete main)
Format settings, Endianness : Big
Codec ID : A_AC3
Duration : 1h 34mn
Bit rate mode : Constant
Bit rate : 384 Kbps
Channel(s) : 6 channels
Channel positions : Front: L C R, Side: L R, LFE
Sampling rate : 48.0 KHz
Bit depth : 16 bits
Compression mode : Lossy
Stream size : 260 MiB (4%)
Title : AC3 5.1
Language : Spanish
Default : Yes
Forced : No
Audio #2
ID : 3
Format : AC-3
Format/Info : Audio Coding 3
Mode extension : CM (complete main)
Format settings, Endianness : Big
Codec ID : A_AC3
Duration : 1h 34mn
Bit rate mode : Constant
Bit rate : 640 Kbps
Channel(s) : 6 channels
Channel positions : Front: L C R, Side: L R, LFE
Sampling rate : 48.0 KHz
Bit depth : 16 bits
Compression mode : Lossy
Stream size : 434 MiB (7%)
Title : AC3 5.1
Language : English
Default : No
Forced : No
Audio #3
ID : 4
Format : DTS
Format/Info : Digital Theater Systems
Mode : 16
Format settings, Endianness : Big
Codec ID : A_DTS
Duration : 1h 34mn
Bit rate mode : Constant
Bit rate : 1 509 Kbps
Channel(s) : 6 channels
Channel positions : Front: L C R, Side: L R, LFE
Sampling rate : 48.0 KHz
Bit depth : 24 bits
Compression mode : Lossy
Stream size : 1 023 MiB (16%)
Title : DTS 5.1
Language : English
Default : No
Forced : No
Text
ID : 5
Format : UTF-8
Codec ID : S_TEXT/UTF8
Codec ID/Info : UTF-8 Plain Text
Language : Spanish
Default : No
Forced : No



Despicable Me [2010] 3D H-SBS 1080p [Ing-Lat]
Despicable Me [2010] 3D H-SBS 1080p [Ing-Lat]
Despicable Me [2010] 3D H-SBS 1080p [Ing-Lat]
Despicable Me [2010] 3D H-SBS 1080p [Ing-Lat]

Despicable Me [2010] 3D H-SBS 1080p [Ing-Lat]

Katfile, Uploaded, Rapidgator

**Todos los Enlaces Estan en Lupaste:

Para poder ver los links necesitas estar Registrado . O.. ya tienes cuenta? Logueate!

Puntos agregados!

0 Puntos

Votos: 0 - T! score: 0/10

15

Visitas

0

Favoritos

0

Medallas

0

Seguidores

0 Comentarios

Cargando comentarios espera un momento...
Para poder comentar necesitas estar Registrado. O.. ya tienes usuario? Logueate!
Tu comentario fue agreado correctamente