The Hobbit The Desolation of Smaug [2013] 3D H-SBS 1080p [In

TV, Peliculas y series | Más de 1 mes
0
0
0

The Hobbit The Desolation of Smaug [2013] 3D H-SBS 1080p [In

TITULO ORIGINAL: The Hobbit: The Desolation of Smaug (The Hobbit 2)
ANO: 2013
DURACION: 160 min.
PAIS: USA
DIRECTOR: Peter Jackson
GUION: Philippa Boyens, Peter Jackson, Fran Walsh, Guillermo del Toro (Novela: J.R.R. Tolkien)
REPARTO: Martin Freeman, Ian McKellen, Richard Armitage, James Nesbitt, Aidan Turner, Graham McTavish, Jed Brophy, Luke Evans, Benedict Cumberbatch, Stephen Hunter, Ken Stott, Evangeline Lilly, Orlando Bloom, John Callen, Adam Brown, Dean OGorman, William Kircher, Peter Hambleton, Mark Hadlow, Lee Pace, Sylvester McCoy, Cate Blanchett, Mikael Persbrandt, Stephen Fry, Ryan Gage
PRODUCTORA: Metro-Goldwyn-Mayer (MGM) / New Line Cinema / WingNut Films
GENERO: Fantastico. Aventuras. Accion | Espada y brujeria. Dragones. Secuela. 3-D
Sinopsis: "El Hobbit: La Desolacion de Smaug" continua la aventura de Bilbo Bolson en su viaje con el mago Gandalf y trece enanos liderados por Thorin Escudo de Roble en una busqueda epica para reclamar el reino enano de Erebor. En su camino toparan con multitud de peligros y haran frente al temible dragon Smaug.
https://www.imdb.com/title/tt1170358/
Trailer
https://youtu.be/f56U1OZpbW0


Cita:


General
Format : Matroska
Format version : Version 4 / Version 2
File size : 16.0 GiB
Duration : 2h 41mn
Overall bit rate : 14.2 Mbps
Encoded date : UTC 2016-05-16 23:05:39
Writing application : mkvmerge v8.3.0 (Over the Horizon) 64bit
Writing library : libebml v1.3.1 + libmatroska v1.4.2
Video
ID : 1
Format : AVC
Format/Info : Advanced Video Codec
Format profile : High@L4.1
MultiView_Count : 2
MultiView_Layout : Side by Side (left eye first)
Format settings, CABAC : Yes
Format settings, ReFrames : 2 frames
Codec ID : V_MPEG4/ISO/AVC
Duration : 2h 41mn
Bit rate : 11.6 Mbps
Width : 1 920 pixels
Height : 1 080 pixels
Display aspect ratio : 16:9
Frame rate mode : Constant
Frame rate : 23.976 (23976/1000) fps
Original frame rate : 23.976 (24000/1001) fps
Color space : YUV
Chroma subsampling : 4:2:0
Bit depth : 8 bits
Scan type : Progressive
Bits/(Pixel*Frame) : 0.234
Stream size : 13.1 GiB (82%)
Writing library : x264 core
Language : English
Default : Yes
Forced : No
Color range : Limited
Color primaries : BT.709
Transfer characteristics : BT.709
Matrix coefficients : BT.709
Audio #1
ID : 2
Format : AC-3
Format/Info : Audio Coding 3
Mode extension : CM (complete main)
Format settings, Endianness : Big
Codec ID : A_AC3
Duration : 2h 41mn
Bit rate mode : Constant
Bit rate : 448 Kbps
Channel(s) : 6 channels
Channel positions : Front: L C R, Side: L R, LFE
Sampling rate : 48.0 KHz
Frame rate : 31.250 fps (1536 spf)
Compression mode : Lossy
Stream size : 517 MiB (3%)
Title : AC3 5.1 Bluray
Language : Spanish
Default : Yes
Forced : No
Audio #2
ID : 3
Format : AC-3
Format/Info : Audio Coding 3
Mode extension : CM (complete main)
Format settings, Endianness : Big
Codec ID : A_AC3
Duration : 2h 41mn
Bit rate mode : Constant
Bit rate : 640 Kbps
Channel(s) : 6 channels
Channel positions : Front: L C R, Side: L R, LFE
Sampling rate : 48.0 KHz
Frame rate : 31.250 fps (1536 spf)
Compression mode : Lossy
Stream size : 739 MiB (4%)
Title : AC3 5.1
Language : English
Default : No
Forced : No
Audio #3
ID : 4
Format : DTS
Format/Info : Digital Theater Systems
Mode : 16
Format settings, Endianness : Big
Codec ID : A_DTS
Duration : 2h 41mn
Bit rate mode : Constant
Bit rate : 1 509 Kbps
Channel(s) : 6 channels
Channel positions : Front: L C R, Side: L R, LFE
Sampling rate : 48.0 KHz
Frame rate : 93.750 fps (512 spf)
Bit depth : 24 bits
Compression mode : Lossy
Stream size : 1.70 GiB (11%)
Title : DTS 5.1
Language : English
Default : No
Forced : No
Text #1
ID : 5
Format : UTF-8
Codec ID : S_TEXT/UTF8
Codec ID/Info : UTF-8 Plain Text
Duration : 2h 6mn
Bit rate : 2 bps
Count of elements : 89
Stream size : 1.95 KiB (0%)
Title : Forz
Language : Spanish
Default : Yes
Forced : No
Text #2
ID : 6
Format : UTF-8
Codec ID : S_TEXT/UTF8
Codec ID/Info : UTF-8 Plain Text
Duration : 2h 39mn
Bit rate : 37 bps
Count of elements : 1749
Stream size : 44.1 KiB (0%)
Title : Complet
Language : Spanish
Default : No
Forced : No



The Hobbit The Desolation of Smaug [2013] 3D H-SBS 1080p [In
The Hobbit The Desolation of Smaug [2013] 3D H-SBS 1080p [In
The Hobbit The Desolation of Smaug [2013] 3D H-SBS 1080p [In
The Hobbit The Desolation of Smaug [2013] 3D H-SBS 1080p [In

The Hobbit The Desolation of Smaug [2013] 3D H-SBS 1080p [In

Uploadgig, Rapidgator, Katfile

**Todos los Enlaces Estan en Lupaste:

Para poder ver los links necesitas estar Registrado . O.. ya tienes cuenta? Logueate!

Puntos agregados!

0 Puntos

Votos: 0 - T! score: 0/10

15

Visitas

0

Favoritos

0

Medallas

0

Seguidores

0 Comentarios

Cargando comentarios espera un momento...
Para poder comentar necesitas estar Registrado. O.. ya tienes usuario? Logueate!
Tu comentario fue agreado correctamente