Star Wars Episode VII The Force Awakens [2015] 3D H-SBS 1080

TV, Peliculas y series | Más de 3 meses
0
0
0


Star Wars Episode VII The Force Awakens [2015] 3D H-SBS 1080

Titulo original: Star Wars: Episode VII: The Force Awakens
Titulo en Latino: Star Wars: El despertar de la fuerza
Ano: 2015
Duracion: 135 min.
Pais: Estados Unidos
Director: J.J. Abrams
Guion: J.J. Abrams, Lawrence Kasdan, Michael Arndt (Personajes: George Lucas)
Musica: John Williams
Fotografia: Daniel Mindel
Reparto: Daisy Ridley, John Boyega, Harrison Ford, Adam Driver, Oscar Isaac, Carrie Fisher, Peter Mayhew, Domhnall Gleeson, Max von Sydow, Gwendoline Christie, Lupita Nyongo, Andy Serkis, Anthony Daniels, Mark Hamill, Greg Grunberg, Kenny Baker, Simon Pegg, Christina Chong, Miltos Yerolemou, Thomas Brodie-Sangster, Ken Leung, Harriet Walter, Iko Uwais, Yayan Ruhian, Warwick Davis, Jessica Henwick, Daniel Craig, Billie Lourd, Judah Friedlander, Kevin Smith
Productora: Lucasfilm / Bad Robot / The Walt Disney Company
Genero: Ciencia ficcion. Aventuras | Aventura espacial. Star Wars. Secuela. 3-D
Sinopsis: Treinta anos despues de la victoria de la Alianza Rebelde sobre la segunda Estrella de la Muerte (hechos narrados en el Episodio VI: El retorno del Jedi), la galaxia esta todavia en guerra. Una nueva Republica se ha constituido, pero una siniestra organizacion, la Primera Orden, ha resurgido de las cenizas del Imperio Galactico. A los heroes de antano, que luchan ahora en la Resistencia, se suman nuevos heroes: Poe Dameron, un piloto de caza, Finn, un desertor de la Primera Orden, Rey, una joven chatarrera, y BB-8, un androide rodante. Todos ellos luchan contra las fuerzas del Mal: el Capitan Phasma, de la Primera Orden, y Kylo Ren, un temible y misterioso personaje que empuna un sable de luz roja.
http://www.imdb.com/title/tt2488496/
Trailer
https://youtu.be/t3MadtX275M


Cita:


General
Complete name : Star Wars - Episode VII - The Force Awakens (2015) 3D H-SBS 1080p
Format : Matroska
Format version : Version 4 / Version 2
File size : 18.6 GiB
Duration : 2h 18mn
Overall bit rate : 19.3 Mbps
Movie name : Star Wars: Episode VII - The Force Awakens (2015) 3D H-SBS 1080p
Encoded date : UTC 2016-10-31 23:39:00
Writing application : mkvmerge v7.1.0 (Good Love) 64bit built on Jul 27 2014 13:06:55
Writing library : libebml v1.3.0 + libmatroska v1.4.1
Video
ID : 1
Format : AVC
Format/Info : Advanced Video Codec
Format profile : High@L4.1
MultiView_Count : 2
MultiView_Layout : Side by Side (left eye first)
Format settings, CABAC : Yes
Format settings, ReFrames : 4 frames
Codec ID : V_MPEG4/ISO/AVC
Duration : 2h 18mn
Bit rate : 16.1 Mbps
Width : 1 920 pixels
Height : 1 080 pixels
Display aspect ratio : 16:9
Frame rate mode : Constant
Frame rate : 23.976 fps
Color space : YUV
Chroma subsampling : 4:2:0
Bit depth : 8 bits
Scan type : Progressive
Bits/(Pixel*Frame) : 0.324
Stream size : 15.6 GiB (84%)
Title : Star Wars: Episode VII - The Force Awakens (2015) 3D H-SBS 1080p
Writing library : x264 core 148 r2705kMod 3f5ed56
Language : English
Default : Yes
Forced : No
Audio #1
ID : 2
Format : AC-3
Format/Info : Audio Coding 3
Mode extension : CM (complete main)
Format settings, Endianness : Big
Codec ID : A_AC3
Duration : 2h 18mn
Bit rate mode : Constant
Bit rate : 640 Kbps
Channel(s) : 6 channels
Channel positions : Front: L C R, Side: L R, LFE
Sampling rate : 48.0 KHz
Bit depth : 16 bits
Compression mode : Lossy
Stream size : 632 MiB (3%)
Title : Star Wars: Episode VII (2015) AC3 5.1 - 640 Kbps (Blu-ray)
Language : Spanish
Default : Yes
Forced : No
Audio #2
ID : 3
Format : AC-3
Format/Info : Audio Coding 3
Mode extension : CM (complete main)
Format settings, Endianness : Big
Codec ID : A_AC3
Duration : 2h 18mn
Bit rate mode : Constant
Bit rate : 640 Kbps
Channel(s) : 6 channels
Channel positions : Front: L C R, Side: L R, LFE
Sampling rate : 48.0 KHz
Bit depth : 16 bits
Compression mode : Lossy
Stream size : 632 MiB (3%)
Title : Star Wars: Episode VII (2015) - AC3 5.1 - 640 Kbps
Language : English
Default : No
Forced : No
Audio #3
ID : 4
Format : DTS
Format/Info : Digital Theater Systems
Mode : 16
Format settings, Endianness : Big
Codec ID : A_DTS
Duration : 2h 18mn
Bit rate mode : Constant
Bit rate : 1 509 Kbps
Channel(s) : 6 channels
Channel positions : Front: L C R, Side: L R, LFE
Sampling rate : 48.0 KHz
Bit depth : 24 bits
Compression mode : Lossy
Stream size : 1.46 GiB (8%)
Title : Star Wars: Episode VII (2015) - DTS 5.1 - 1509 Kbps
Language : English
Default : No
Forced : No
Text #1
ID : 5
Format : UTF-8
Codec ID : S_TEXT/UTF8
Codec ID/Info : UTF-8 Plain Text
Title : Star Wars: Episode VII - The Force Awakens (2015) - Subt
Language : Spanish
Default : No
Forced : No

Text #2
ID : 6
Format : UTF-8
Codec ID : S_TEXT/UTF8
Codec ID/Info : UTF-8 Plain Text
Title : Star Wars: Episode VII - The Force Awakens (2015) - Subt Forz
Language : Spanish
Default : Yes
Forced : No



Star Wars Episode VII The Force Awakens [2015] 3D H-SBS 1080
Star Wars Episode VII The Force Awakens [2015] 3D H-SBS 1080
Star Wars Episode VII The Force Awakens [2015] 3D H-SBS 1080
Star Wars Episode VII The Force Awakens [2015] 3D H-SBS 1080

Star Wars Episode VII The Force Awakens [2015] 3D H-SBS 1080

Uploadgig, Rapidgator, Katfile

**Todos los Enlaces Estan en Lupaste:

Para poder ver los links necesitas estar Registrado . O.. ya tienes cuenta? Logueate!

Puntos agregados!

0 Puntos

Votos: 0 - T! score: 0/10

28

Visitas

0

Favoritos

0

Medallas

0

Seguidores

0 Comentarios

Cargando comentarios espera un momento...
Para poder comentar necesitas estar Registrado. O.. ya tienes usuario? Logueate!
Tu comentario fue agreado correctamente