The Apartment (1960) FullHD 1080p (Ing-Lat)

TV, Peliculas y series | Hace 17 días
0
0
0


The Apartment (1960)  FullHD 1080p  (Ing-Lat)

Título original: The Apartment
Año: 1960
Duración: 126 min.
País: Estados Unidos
Director: Billy Wilder
Reparto: Jack Lemmon, Shirley MacLaine, Fred MacMurray, Ray Walston, Edie Adams, Jack Kruschen, Joan Shawlee, Hope Holiday, David Lewis, Naomi Stevens, Johnny Seven, Joyce Jameson, Willard Waterman, David White
Productora: United Artists / The Mirisch Corporation
Género: Comedia. Romance. Drama | Comedia dramática
Sinopsis: C.C. Baxter (Jack Lemmon) es un modesto pero ambicioso empleado de una compañía de seguros de Manhattan. Está soltero y vive solo en un discreto apartamento que presta ocasionalmente a sus superiores para sus citas amorosas. Tiene la esperanza de que estos favores le sirvan para mejorar su posición en la empresa. Pero la situación cambia cuando se enamora de una ascensorista (Shirley MacLaine) que resulta ser la amante de uno de los jefes que usan su apartamento (Fred MacMurray).
Premios
1960: 5 Oscars incluyendo mejor película, director y guión original. 10 nom.
1960: 3 Globos de Oro, incluyendo Mejor película - Comedia. 4 nominaciones
1960: Premios BAFTA: Mejor película, actor extranjero y actriz extranjera
1960: Sindicato de Directores (DGA): Mejor director
1960: Sindicato de Guionistas (WGA): Mejor guión comedia
1960: Festival de Venecia: Mejor actriz (Shirley MacLaine)
1960: Círculo de críticos de Nueva York: Mejor película (ex-aequo), director y guión
1960: National Board of Review: Top 10 mejores películas
https://www.imdb.com/title/tt0053604
Trailer
https://youtu.be/3j9Q6w_3asA


Cita:


General
Format : Matroska
Format version : Version 4 / Version 2
File size : 9.52 GiB
Duration : 2 h 5 min
Overall bit rate : 10.9 Mb/s
Movie name : The Apartment (1960) 1080p
Encoded date : UTC 2017-09-16 23:09:46
Writing application : mkvmerge v15.0.0 ('Duel with the Devil') 64-bit
Writing library : libebml v1.3.5 + libmatroska v1.4.5
Video
ID : 1
Format : AVC
Format/Info : Advanced Video Codec
Format profile : High@L4
Format settings, CABAC : Yes
Format settings, ReFrames : 5 frames
Codec ID : V_MPEG4/ISO/AVC
Duration : 2 h 5 min
Bit rate : 8 960 kb/s
Width : 1 920 pixels
Height : 820 pixels
Display aspect ratio : 2.35:1
Frame rate mode : Constant
Frame rate : 23.976 FPS
Color space : YUV
Chroma subsampling : 4:2:0
Bit depth : 8 bits
Scan type : Progressive
Bits/(Pixel*Frame) : 0.237
Stream size : 7.84 GiB (82%)
Title : The Apartment (1960) 1080p
Writing library : x264 core 130 r2273 b3065e6
Language : English
Default : Yes
Forced : No
Color range : Limited
Color primaries : BT.709
Transfer characteristics : BT.709
Matrix coefficients : BT.709
Audio #1
ID : 2
Format : AC-3
Format/Info : Audio Coding 3
Mode extension : CM (complete main)
Format settings, Endianness : Big
Codec ID : A_AC3
Duration : 2 h 5 min
Bit rate mode : Constant
Bit rate : 224 kb/s
Channel(s) : 2 channels
Channel positions : Front: L R
Sampling rate : 48.0 kHz
Frame rate : 31.250 FPS (1536 spf)
Bit depth : 16 bits
Compression mode : Lossy
Stream size : 201 MiB (2%)
Title : AC3 2.0 Bluray
Language : Spanish
Default : Yes
Forced : No
Audio #2
ID : 3
Format : AC-3
Format/Info : Audio Coding 3
Mode extension : CM (complete main)
Format settings, Endianness : Big
Codec ID : A_AC3
Duration : 2 h 5 min
Bit rate mode : Constant
Bit rate : 192 kb/s
Channel(s) : 2 channels
Channel positions : Front: L R
Sampling rate : 48.0 kHz
Frame rate : 31.250 FPS (1536 spf)
Bit depth : 16 bits
Compression mode : Lossy
Stream size : 172 MiB (2%)
Title : AC3 2.0 DVD
Language : latin Spanish
Default : No
Forced : No
Audio #3
ID : 4
Format : DTS
Format/Info : Digital Theater Systems
Mode : 16
Format settings, Endianness : Big
Codec ID : A_DTS
Duration : 2 h 5 min
Bit rate mode : Constant
Bit rate : 1 509 kb/s
Channel(s) : 6 channels
Channel positions : Front: L C R, Side: L R, LFE
Sampling rate : 48.0 kHz
Frame rate : 93.750 FPS (512 spf)
Bit depth : 24 bits
Compression mode : Lossy
Stream size : 1.32 GiB (14%)
Title : DTS
Language : English
Default : No
Forced : No
Text #1
ID : 5
Format : UTF-8
Codec ID : S_TEXT/UTF8
Codec ID/Info : UTF-8 Plain Text
Duration : 1 h 50 min
Bit rate : 0 b/s
Count of elements : 8
Stream size : 254 Bytes (0%)
Title : Subtit_Forz
Language : Spanish
Default : Yes
Forced : No
Text #2
ID : 6
Format : UTF-8
Codec ID : S_TEXT/UTF8
Codec ID/Info : UTF-8 Plain Text
Duration : 2 h 3 min
Bit rate : 70 b/s
Count of elements : 1599
Stream size : 63.9 KiB (0%)
Title : Subtit_Complet
Language : Spanish
Default : No
Forced : No



The Apartment (1960)  FullHD 1080p  (Ing-Lat)
The Apartment (1960)  FullHD 1080p  (Ing-Lat)
The Apartment (1960)  FullHD 1080p  (Ing-Lat)
The Apartment (1960)  FullHD 1080p  (Ing-Lat)

The Apartment (1960)  FullHD 1080p  (Ing-Lat)
Buy Premium Account To Get High Speed Download
Para poder ver los links necesitas estar Registrado . O.. ya tienes cuenta? Logueate!

Puntos agregados!

0 Puntos

Votos: 0 - T! score: 0/10

32

Visitas

0

Favoritos

0

Medallas

0

Seguidores

0 Comentarios

Cargando comentarios espera un momento...
Para poder comentar necesitas estar Registrado. O.. ya tienes usuario? Logueate!
Tu comentario fue agreado correctamente