SAW II (2005) FullHD 1080p (Ing-Lat)

TV, Peliculas y series | Hace 21 días
0
0
0


SAW II (2005)  FullHD 1080p  (Ing-Lat)

Título original: SAW II
Año: 2005
Duración: 1 h 34 min
País: Estados Unidos
Director: Darren Lynn Bousman
Guión: Leigh Whannell, Darren Lynn Bousman
Música: Charlie Clouser
Fotografía: David A. Armstrong
Reparto: Donnie Wahlberg, Shawnee Smith, Tobin Bell, Franky G., Glenn Plummer, Dina Meyer, Emmanuelle Vaugier, Beverley Mitchell, Eric Knudsen, Tim Burd, Lyriq Bent
Productora: Lions Gate Films / Twisted Pictures
Género: Terror. Intriga. Thriller | Gore. Asesinos en serie. Secuestros / Desapariciones. Secuela.
Sinopsis: "Decide rápido... o muere despacio". Cuando aparece una nueva víctima de asesinato con los signos característicos de Jigsaw, el Agente Eric Matthews (Donnie Wahlberg) se embarca en una investigación exhaustiva que le permite detener al asesino sin demasiado esfuerzo. Sin embargo, para Jigsaw ser detenido no es sino otra parte de su retorcido plan. Hay otras ocho víctimas jugándose la vida y ahora le toca a Matthews unirse al juego..
http://www.imdb.com/title/tt0432348
Trailer
https://youtu.be/Lq2AzZB6DUE


Cita:


Format : Matroska
Format version : Version 4 / Version 2
File size : 13.2 GiB
Duration : 1 h 34 min
Overall bit rate : 19.9 Mb/s
Encoded date : UTC 2017-09-08 02:20:21
Writing application : mkvmerge v15.0.0 ('Duel with the Devil') 64-bit
Writing library : libebml v1.3.5 + libmatroska v1.4.5
Video
ID : 1
Format : AVC
Format/Info : Advanced Video Codec
Format profile : High@L4.1
Format settings, CABAC : Yes
Format settings, ReFrames : 4 frames
Codec ID : V_MPEG4/ISO/AVC
Duration : 1 h 34 min
Bit rate : 16.7 Mb/s
Width : 1 920 pixels
Height : 1 080 pixels
Display aspect ratio : 16:9
Frame rate mode : Constant
Frame rate : 23.976 (24000/1001) FPS
Color space : YUV
Chroma subsampling : 4:2:0
Bit depth : 8 bits
Scan type : Progressive
Bits/(Pixel*Frame) : 0.336
Stream size : 11.0 GiB (84%)
Title : SAW II UNRATED (2005) 1080p
Writing library : x264 core 146 r2538 121396c
Language : English
Default : Yes
Forced : No
Color range : Limited
Color primaries : BT.709
Transfer characteristics : BT.709
Matrix coefficients : BT.709
Audio #1
ID : 2
Format : AC-3
Format/Info : Audio Coding 3
Mode extension : CM (complete main)
Format settings, Endianness : Big
Codec ID : A_AC3
Duration : 1 h 34 min
Bit rate mode : Constant
Bit rate : 192 kb/s
Channel(s) : 2 channels
Channel positions : Front: L R
Sampling rate : 44.1 kHz
Frame rate : 28.711 FPS (1536 spf)
Bit depth : 16 bits
Compression mode : Lossy
Stream size : 130 MiB (1%)
Title : Latin-AC 3-(2.0) DVD
Language : Spanish
Default : Yes
Forced : No
Audio #2
ID : 3
Format : DTS
Format/Info : Digital Theater Systems
Format profile : HRA / ES Matrix / Core
Mode : 16
Format settings, Endianness : Big
Codec ID : A_DTS
Duration : 1 h 34 min
Bit rate mode : Constant
Bit rate : 3 039 kb/s / 1 509 kb/s / 1 509 kb/s
Channel(s) : 7 channels / 7 channels / 6 channels
Channel positions : Front: L C R, Side: L R, Back: C, LFE / Front: L C R, Side: L R, Back: C, LFE / Front: L C R, Side: L R, LFE
Sampling rate : 48.0 kHz
Frame rate : 93.750 FPS (512 spf)
Bit depth : 24 bits
Compression mode : Lossy
Stream size : 2.01 GiB (15%)
Title : DTS HD-(5.1) BluRay
Language : English
Default : No
Forced : No
Text #1
ID : 4
Format : UTF-8
Codec ID : S_TEXT/UTF8
Codec ID/Info : UTF-8 Plain Text
Duration : 1 h 26 min
Bit rate : 53 b/s
Count of elements : 1041
Stream size : 34.1 KiB (0%)
Language : Spanish
Default : No
Forced : No
Text #2
ID : 5
Format : UTF-8
Codec ID : S_TEXT/UTF8
Codec ID/Info : UTF-8 Plain Text
Duration : 1 h 27 min
Bit rate : 54 b/s
Count of elements : 1038
Stream size : 35.1 KiB (0%)
Language : English
Default : No
Forced : No



SAW II (2005)  FullHD 1080p  (Ing-Lat)
SAW II (2005)  FullHD 1080p  (Ing-Lat)

SAW II (2005)  FullHD 1080p  (Ing-Lat)
Buy Premium Account To Get High Speed Download
Para poder ver los links necesitas estar Registrado . O.. ya tienes cuenta? Logueate!

Puntos agregados!

0 Puntos

Votos: 0 - T! score: 0/10

25

Visitas

0

Favoritos

0

Medallas

0

Seguidores

0 Comentarios

Cargando comentarios espera un momento...
Para poder comentar necesitas estar Registrado. O.. ya tienes usuario? Logueate!
Tu comentario fue agreado correctamente