Neruda (2016) FullHD 1080p (Lat)

TV, Peliculas y series | Hace 19 días
0
0
0


Neruda (2016)  FullHD 1080p  (Lat)

Título original:Neruda
Año: 2016
Duración: 107 min.
País: Chile
Director: Pablo Larraín
Guión:Guillermo Calderón
Música: Federico Jusid
Fotografía: Sergio Armstrong
Reparto: Luis Gnecco, Gael García Bernal, Mercedes Morán, Alfredo Castro, Pablo Derqui, Marcelo Alonso, Alejandro Goic, Antonia Zegers, Jaime Vadell, Diego Muñoz, Francisco Reyes, Michael Silva, Víctor Montero
Productora:Coproducción Chile-Francia-España-Argentina; AZ Films / Fabula / Funny Balloons / Participant Media / Setembro Cine / TELEFE
Género: Drama | Biográfico. Años 40. Literatura. Realismo mágico
Sinopsis: En 1948, el senador y escritor Pablo Neruda acusa al gobierno chileno de traicionar a los comunistas en el congreso. El presidente González Videla lo desafuera y ordena su captura. El poeta emprende la huida del país junto a su mujer. Mientras es perseguido por el prefecto de la policía, Neruda comienza a escribir "Canto general" y se convierte en símbolo de la libertad y leyenda literaria.
https://www.imdb.com/title/tt4698584
Trailer
https://youtu.be/neUwXV_cSwM


Cita:


Format : Matroska
Format version : Version 4 / Version 2
File size : 6.73 GiB
Duration : 1 h 47 min
Overall bit rate : 8 934 kb/s
Encoded date : UTC 2017-09-22 05:09:12
Writing application : mkvmerge v15.0.0 ('Duel with the Devil') 64-bit
Writing library : libebml v1.3.5 + libmatroska v1.4.5
Video
ID : 1
Format : AVC
Format/Info : Advanced Video Codec
Format profile : High@L4.1
Format settings, CABAC : Yes
Format settings, ReFrames : 4 frames
Codec ID : V_MPEG4/ISO/AVC
Duration : 1 h 47 min
Bit rate : 7 428 kb/s
Width : 1 920 pixels
Height : 804 pixels
Display aspect ratio : 2.40:1
Frame rate mode : Constant
Frame rate : 24.000 FPS
Color space : YUV
Chroma subsampling : 4:2:0
Bit depth : 8 bits
Scan type : Progressive
Bits/(Pixel*Frame) : 0.201
Stream size : 5.60 GiB (83%)
Title : Neruda (2016) 1080p BDRip Audio Latino (Drama, Biográfico. Años 40)
Writing library : x264 core 148 r2708 86b7198
Language : Spanish
Default : Yes
Forced : No
Color range : Limited
Color primaries : BT.709
Transfer characteristics : BT.709
Matrix coefficients : BT.709
Audio
ID : 2
Format : DTS
Format/Info : Digital Theater Systems
Format profile : MA / Core
Mode : 16
Format settings, Endianness : Big
Codec ID : A_DTS
Duration : 1 h 47 min
Bit rate mode : Variable / Constant
Bit rate : 1 503 kb/s / 768 kb/s
Channel(s) : 6 channels
Channel positions : Front: L C R, Side: L R, LFE
Sampling rate : 48.0 kHz
Frame rate : 93.750 FPS (512 spf)
Bit depth : 16 bits
Compression mode : Lossless / Lossy
Stream size : 1.13 GiB (17%)
Title : Latino-DTS HD MA-(5.1) BluRay
Language : Spanish
Default : Yes
Forced : No



Neruda (2016)  FullHD 1080p  (Lat)
Neruda (2016)  FullHD 1080p  (Lat)

Neruda (2016)  FullHD 1080p  (Lat)
Para poder ver los links necesitas estar Registrado . O.. ya tienes cuenta? Logueate!

Puntos agregados!

0 Puntos

Votos: 0 - T! score: 0/10

20

Visitas

0

Favoritos

0

Medallas

0

Seguidores

0 Comentarios

Cargando comentarios espera un momento...
Para poder comentar necesitas estar Registrado. O.. ya tienes usuario? Logueate!
Tu comentario fue agreado correctamente