Baby Driver (2017) FullHD 1080p (Ing)

TV, Peliculas y series | Más de 1 mes
0
0
0


Baby Driver (2017)  FullHD 1080p  (Ing)

Titulo original: Baby Driver
Ano: 2017
Duracion: 115 min.
Pais: United Kingdom
Director: Edgar Wright
Guion: Edgar Wright
Productora: Coproduccion Reino Unido-Estados Unidos; Big Talk Productions / Media Rights Capital / Working Title Films / TriStar Pictures / Double Negative
Genero: Accion. Comedia | Crimen. Robos & Atracos. Coches / Automovilismo
Sinopsis: Baby (Ansel Elgort), un joven y talentoso conductor especializado en fugas, depende del ritmo de su banda sonora personal para ser el mejor en lo suyo. Cuando conoce a la chica de sus suenos (Lily James), Baby ve una oportunidad de abandonar su vida criminal y realizar una huida limpia. Pero despues de ser forzado a trabajar para un jefe de una banda criminal (Kevin Spacey), debera dar la cara cuando un golpe malogrado amenaza su vida, su amor y su libertad
https://www.imdb.com/title/tt3890160
Trailer
https://youtu.be/Qdm5SkRuL0o


Cita:


General
Unique ID : 203157723401807239560632166468056588906 (0x98D6C1195DC17A4C91E790A9588D226A)
Format : Matroska
Format version : Version 4 / Version 2
File size : 9.94 GiB
Duration : 1 h 52 min
Overall bit rate mode : Variable
Overall bit rate : 12.6 Mb/s
Encoded date : UTC 2017-09-16 09:23:58
Writing application : mkvmerge v9.9.0 (Pick Up) 64bit
Writing library : libebml v1.3.4 + libmatroska v1.4.5
Video
ID : 1
Format : AVC
Format/Info : Advanced Video Codec
Format profile : High@L4
Format settings, CABAC : Yes
Format settings, ReFrames : 4 frames
Codec ID : V_MPEG4/ISO/AVC
Duration : 1 h 52 min
Bit rate mode : Variable
Bit rate : 12.0 Mb/s
Maximum bit rate : 15.0 Mb/s
Width : 1 920 pixels
Height : 800 pixels
Display aspect ratio : 2.40:1
Frame rate mode : Constant
Frame rate : 23.976 (24000/1001) FPS
Color space : YUV
Chroma subsampling : 4:2:0
Bit depth : 8 bits
Scan type : Progressive
Bits/(Pixel*Frame) : 0.325
Stream size : 9.43 GiB (95%)
Language : English
Default : Yes
Forced : No
Color range : Limited
Color primaries : BT.709
Transfer characteristics : BT.709
Matrix coefficients : BT.709
Audio
ID : 2
Format : E-AC-3
Format/Info : Enhanced Audio Coding 3
Format settings, Endianness : Big
Codec ID : A_EAC3
Duration : 1 h 52 min
Bit rate mode : Constant
Bit rate : 640 kb/s
Channel(s) : 6 channels
Channel positions : Front: L C R, Side: L R, LFE
Sampling rate : 48.0 kHz
Frame rate : 187.500 FPS (256 spf)
Compression mode : Lossy
Stream size : 516 MiB (5%)
Title : E-AC3 5.1 640kbps Amazon
Language : English
Default : Yes
Forced : No
Text #1
ID : 3
Format : UTF-8
Codec ID : S_TEXT/UTF8
Codec ID/Info : UTF-8 Plain Text
Duration : 1 h 49 min
Bit rate : 63 b/s
Count of elements : 1592
Stream size : 50.6 KiB (0%)
Language : Latin
Default : Yes
Forced : No
Text #2
ID : 4
Format : UTF-8
Codec ID : S_TEXT/UTF8
Codec ID/Info : UTF-8 Plain Text
Duration : 1 h 51 min
Bit rate : 78 b/s
Count of elements : 2275
Stream size : 64.3 KiB (0%)
Language : English
Default : No
Forced : No



Baby Driver (2017)  FullHD 1080p  (Ing)
Baby Driver (2017)  FullHD 1080p  (Ing)
Baby Driver (2017)  FullHD 1080p  (Ing)
Baby Driver (2017)  FullHD 1080p  (Ing)

Baby Driver (2017)  FullHD 1080p  (Ing)
Buy Premium Account To Get High Speed Download
Para poder ver los links necesitas estar Registrado . O.. ya tienes cuenta? Logueate!

Puntos agregados!

0 Puntos

Votos: 0 - T! score: 0/10

31

Visitas

0

Favoritos

0

Medallas

0

Seguidores

0 Comentarios

Cargando comentarios espera un momento...
Para poder comentar necesitas estar Registrado. O.. ya tienes usuario? Logueate!
Tu comentario fue agreado correctamente