Atonement (2007) FullHD 1080p (Ing-Lat)

TV, Peliculas y series | Hace 22 días
0
0
0


Atonement (2007)  FullHD 1080p  (Ing-Lat)

Titulo original: Atonement
Ano: 2007
Duracion: 123 min.
Pais: Reino Unido
Director: Joe Wright
Reparto: Keira Knightley, James McAvoy, Romola Garai, Saoirse Ronan, Vanessa Redgrave, Brenda Blethyn, Harriet Walter, Patrick Kennedy, Benedict Cumberbatch, Juno Temple, Daniel Mays, Jeremie Renier, Michelle Duncan, Gina McKee
Productora: Coproduccion Reino Unido-USA; Working Title Films / Universal Pictures / Studio Canal / Relativity Media
Genero: Romance. Drama. Belico | Drama Romantico. II Guerra Mundial. Cine epico
Sinopsis: En el verano de 1935, Briony Tallis (Saoirse Ronan), una precoz escritora de 13 anos, cambia irremediablemente el curso de varias vidas al acusar a Robbie Turner (James McAvoy), el amante de su hermana Cecilia (Keira Knightley), de un crimen que no ha cometido.
https://www.imdb.com/title/tt1131724
Trailer
https://youtu.be/zRlkHu-R7yI


Cita:


General
Unique ID : 183454482832810555499676228591899485611 (0x8A040C564F3B22938EB5978525EDA5AB)
Complete name : Atonement (2007) 1080p BDRip Dual.mkv
Format : Matroska
Format version : Version 4 / Version 2
File size : 11,9 GB
Duration : 2 h 2 min
Movie name : Atonement (2007)
Encoded date : UTC 2017-09-15 08:33:27
Writing application : mkvmerge v15.0.0 (Duel with the Devil) 64-bit
Writing library : libebml v1.3.5 + libmatroska v1.4.5
IsTruncated : Yes
Video
ID : 1
Format : AVC
Format/Info : Advanced Video Codec
Format profile : High@L4.1
Format settings, CABAC : Yes
Format settings, ReFrames : 4 frames
Codec ID : V_MPEG4/ISO/AVC
Duration : 2 h 2 min
Nominal bit rate : 11.6 Mb/s
Width : 1 920 pixels
Height : 1 040 pixels
Display aspect ratio : 1.85:1
Frame rate mode : Constant
Frame rate : 23.976 (24000/1001) FPS
Color space : YUV
Chroma subsampling : 4:2:0
Bit depth : 8 bits
Scan type : Progressive
Bits/(Pixel*Frame) : 0.241
Title : MPEG-4 AVC / 1080p / High Profile 4.1 / 11600 kbps / Bluray
Writing library : x264 core 120 r2164 da19765
Default : Yes
Forced : No
Audio #1
ID : 2
Format : DTS
Format/Info : Digital Theater Systems
Mode : 16
Format settings, Endianness : Big
Codec ID : A_DTS
Duration : 2 h 2 min
Bit rate mode : Constant
Bit rate : 1 509 kb/s
Channel(s) : 6 channels
Channel positions : Front: L C R, Side: L R, LFE
Sampling rate : 48.0 kHz
Frame rate : 93.750 FPS (512 spf)
Bit depth : 24 bits
Compression mode : Lossy
Stream size : 1.30 GiB
Title : DTS / 5.1 / 1509 kbps / 48kHz / Bluray
Language : English
Default : No
Forced : No
Audio #2
ID : 3
Format : DTS
Format/Info : Digital Theater Systems
Mode : 16
Format settings, Endianness : Big
Codec ID : A_DTS
Duration : 2 h 2 min
Bit rate mode : Constant
Bit rate : 768 kb/s
Channel(s) : 6 channels
Channel positions : Front: L C R, Side: L R, LFE
Sampling rate : 48.0 kHz
Frame rate : 93.750 FPS (512 spf)
Bit depth : 24 bits
Compression mode : Lossy
Stream size : 675 MiB
Title : DTS / 5.1 / 768 kbps / 48kHz / Bluray
Language : Spanish latin
Default : Yes
Forced : No
Text #1
ID : 4
Format : PGS
Muxing mode : zlib
Codec ID : S_HDMV/PGS
Codec ID/Info : Picture based subtitle format used on BDs/HD-DVDs
Title CC) / PGS / Bluray
Language : English
Default : No
Forced : No
Text #2
ID : 5
Format : UTF-8
Codec ID : S_TEXT/UTF8
Codec ID/Info : UTF-8 Plain Text
Title : (CC) / SubRip / Bluray
Language : English
Default : No
Forced : No
Text #3
ID : 6
Format : PGS
Muxing mode : zlib
Codec ID : S_HDMV/PGS
Codec ID/Info : Picture based subtitle format used on BDs/HD-DVDs
Title : PGS / Bluray
Language : Spanish latin
Default : No
Forced : No
Text #4
ID : 7
Format : UTF-8
Codec ID : S_TEXT/UTF8
Codec ID/Info : UTF-8 Plain Text
Title : SubRip / Bluray
Language : Spanish latin
Default : No
Forced : No
Text #5
ID : 8
Format : PGS
Muxing mode : zlib
Codec ID : S_HDMV/PGS
Codec ID/Info : Picture based subtitle format used on BDs/HD-DVDs
Title : (Forz) / PGS / Bluray
Language : Spanish latin
Default : No
Forced : No
Text #6
ID : 9
Format : UTF-8
Codec ID : S_TEXT/UTF8
Codec ID/Info : UTF-8 Plain Text
Title : (Forz) / SubRip / Bluray
Language : Spanish latin
Default : Yes
Forced : No



Atonement (2007)  FullHD 1080p  (Ing-Lat)
Atonement (2007)  FullHD 1080p  (Ing-Lat)
Atonement (2007)  FullHD 1080p  (Ing-Lat)

Atonement (2007)  FullHD 1080p  (Ing-Lat)
Buy Premium Account To Get High Speed Download
Para poder ver los links necesitas estar Registrado . O.. ya tienes cuenta? Logueate!

Puntos agregados!

0 Puntos

Votos: 0 - T! score: 0/10

20

Visitas

0

Favoritos

0

Medallas

0

Seguidores

0 Comentarios

Cargando comentarios espera un momento...
Para poder comentar necesitas estar Registrado. O.. ya tienes usuario? Logueate!
Tu comentario fue agreado correctamente