21 Jump Street (2012) FullHD 1080p (Ing-Lat)

TV, Peliculas y series | Hace 22 días
0
0
0


21 Jump Street (2012)  FullHD 1080p (Ing-Lat)

Titulo original: 21 Jump Street
Ano: 2012
Duracion: 109 min.
Pais: Estados Unidos
Director: Phil Lord, Chris Miller
Reparto: Jonah Hill, Channing Tatum, Brie Larson, Dave Franco, Rob Riggle, DeRay Davis, Ice Cube, Ellie Kemper, Chris Parnell, Caroline Aaron, Dax Flame, Dakota Johnson, Jake Johnson, Nick Offerman, Johnny Depp
Productora: Columbia Pictures / Metro-Goldwyn-Mayer (MGM) / Original Film / Relativity Media
Genero: Comedia. Accion | Policiaco. Colegios & Universidad. Drogas. Buddy Film

Sinopsis: Dos policias jovenes se infiltran en un instituto, haciendose pasar por alumnos, para desarticular una red de narcotrafico. Para Schmidt (Jonah Hill) y Jenko (Channing Tatum) esta es una gran oportunidad para demostrar lo que valen. El problema es que todo lo que creian saber sobre la adolescencia, el sexo, las drogas y el rock and roll ya ha pasado a la historia: los chicos de hoy no se parecen en nada a los de antes. Adaptacion cinematografica en clave de comedia de "Jovenes policias", una serie televisiva de los 80 protagonizada por Johnny Depp.
https://www.imdb.com/title/tt1232829
Trailer
https://youtu.be/XzkEwkftQ8o


Cita:


General
Format : Matroska
Format version : Version 4 / Version 2
File size : 9.24 GiB
Duration : 1 h 49 min
Overall bit rate : 12.1 Mb/s
Movie name : 21 Jump Street (2012) 1080p
Encoded date : UTC 2017-08-11 17:09:05
Writing application : mkvmerge v9.9.0 (Pick Up) 64bit
Writing library : libebml v1.3.4 + libmatroska v1.4.5
Video
ID : 1
Format : AVC
Format/Info : Advanced Video Codec
Format profile : High@L4.1
Format settings, CABAC : Yes
Format settings, ReFrames : 5 frames
Codec ID : V_MPEG4/ISO/AVC
Duration : 1 h 49 min
Bit rate : 9 911 kb/s
Width : 1 920 pixels
Height : 800 pixels
Display aspect ratio : 2.40:1
Frame rate mode : Constant
Frame rate : 23.976 (24000/1001) FPS
Color space : YUV
Chroma subsampling : 4:2:0
Bit depth : 8 bits
Scan type : Progressive
Bits/(Pixel*Frame) : 0.269
Stream size : 7.59 GiB (82%)
Title : 21 Jump Street (2012) 1080p
Writing library : x264 core 125 r2200 999b753
Language : English
Default : Yes
Forced : No
Color range : Limited
Color primaries : Generic film
Audio #1
ID : 2
Format : AC-3
Format/Info : Audio Coding 3
Mode extension : CM (complete main)
Format settings, Endianness : Big
Codec ID : A_AC3
Duration : 1 h 49 min
Bit rate mode : Constant
Bit rate : 640 kb/s
Channel(s) : 6 channels
Channel positions : Front: L C R, Side: L R, LFE
Sampling rate : 48.0 kHz
Frame rate : 31.250 FPS (1536 spf)
Bit depth : 16 bits
Compression mode : Lossy
Stream size : 502 MiB (5%)
Title : AC3 5.1 Bluray
Language : Spanish
Default : Yes
Forced : No
Audio #2
ID : 3
Format : DTS
Format/Info : Digital Theater Systems
Mode : 16
Format settings, Endianness : Big
Codec ID : A_DTS
Duration : 1 h 49 min
Bit rate mode : Constant
Bit rate : 1 509 kb/s
Channel(s) : 6 channels
Channel positions : Front: L C R, Side: L R, LFE
Sampling rate : 48.0 kHz
Frame rate : 93.750 FPS (512 spf)
Bit depth : 24 bits
Compression mode : Lossy
Stream size : 1.16 GiB (13%)
Title : DTS
Language : English
Default : No
Forced : No
Text #1
ID : 4
Format : UTF-8
Codec ID : S_TEXT/UTF8
Codec ID/Info : UTF-8 Plain Text
Duration : 1 h 27 min
Bit rate : 0 b/s
Count of elements : 21
Stream size : 504 Bytes (0%)
Language : Spanish
Default : Yes
Forced : No
Text #2
ID : 5
Format : UTF-8
Codec ID : S_TEXT/UTF8
Codec ID/Info : UTF-8 Plain Text
Duration : 1 h 44 min
Bit rate : 68 b/s
Count of elements : 1873
Stream size : 52.1 KiB (0%)
Language : Spanish
Default : No
Forced : No



21 Jump Street (2012)  FullHD 1080p (Ing-Lat)
21 Jump Street (2012)  FullHD 1080p (Ing-Lat)
21 Jump Street (2012)  FullHD 1080p (Ing-Lat)
21 Jump Street (2012)  FullHD 1080p (Ing-Lat)

21 Jump Street (2012)  FullHD 1080p (Ing-Lat)
Buy Premium Account To Get High Speed Download
Para poder ver los links necesitas estar Registrado . O.. ya tienes cuenta? Logueate!

Puntos agregados!

0 Puntos

Votos: 0 - T! score: 0/10

20

Visitas

0

Favoritos

0

Medallas

0

Seguidores

0 Comentarios

Cargando comentarios espera un momento...
Para poder comentar necesitas estar Registrado. O.. ya tienes usuario? Logueate!
Tu comentario fue agreado correctamente