Star Trek Into Darkness (2013) 3D H-SBS 1080p (Ing-Lat)

TV, Peliculas y series | Hace 26 días
0
0
0


Star Trek Into Darkness (2013) 3D H-SBS 1080p (Ing-Lat)

TITLE ORIGINAL: Star Trek Into Darkness (Star Trek 2)
YEAR 2013
DURATION: 132 min.
COUNTRY: USA
DIRECTOR: J.J. Abrams
Screenplay: Alex Kurtzman, Damon Lindelof, Roberto Orci (Original Series: Gene Roddenberry)
Zachary Quinto, Zoe Saldana, Benedict Cumberbatch, Karl Urban, Simon Pegg, John Cho, Anton Yelchin, Alice Eve, Bruce Greenwood, Peter Weller, Noel Clarke, Leonard Nimoy
STUDIO: Bad Robot / Skydance / Paramount Pictures
GENERO: Science fiction. Adventure. Action | Space adventure. Sequel. Star Trek. 3-D
Synopsis: When the crew of the Enterprise ship are ordered to return home, on Earth they face a terrorizing force that, apparently from within, has perpetrated an attack on the Federation's dome and everything it represents, To the fleet in a deep crisis. To try to solve the problem, and with a personal matter to solve, Captain Kirk leads an incursion into a planet at war to capture a man who is a weapon of mass destruction. As our heroes plunge into an epic game of life-and-death chess, loyalty will be put to the test, friendships will break, and certain sacrifices will have to be made for Kirk's only remaining family: his crew .
http://www.imdb.com/title/tt1408101/
Trailer
https://youtu.be/QAEkuVgt6Aw


Cita:


General
Format : Matroska
Format version : Version 2
File size : 13.5 GiB
Duration : 2h 12mn
Overall bit rate : 14.6 Mbps
Encoded date : UTC 2013-08-27 02:00:44
Writing application : mkvmerge v5.7.0 (The Whirlwind) built on Jul 8 2012 20:08:51
Writing library : libebml v1.2.3 + libmatroska v1.3.0
Video
ID : 1
Format : AVC
Format/Info : Advanced Video Codec
Format profile : High@L4.1
Format settings, CABAC : Yes
Format settings, ReFrames : 2 frames
Format settings, GOP : M=3, N=24
Codec ID : V_MPEG4/ISO/AVC
Duration : 2h 12mn
Bit rate : 11.5 Mbps
Width : 1 920 pixels
Height : 1 080 pixels
Display aspect ratio : 16:9
Frame rate mode : Constant
Frame rate : 23.976 fps
Color space : YUV
Chroma subsampling : 4:2:0
Bit depth : 8 bits
Scan type : Progressive
Bits/(Pixel*Frame) : 0.231
Stream size : 10.6 GiB (79%)
Writing library : x264 core
Language : English
Default : Yes
Forced : No
Color primaries : BT.709
Transfer characteristics : BT.709
Matrix coefficients : BT.709
Audio #1
ID : 2
Format : AC-3
Format/Info : Audio Coding 3
Mode extension : CM (complete main)
Format settings, Endianness : Big
Codec ID : A_AC3
Duration : 2h 12mn
Bit rate mode : Constant
Bit rate : 640 Kbps
Channel(s) : 6 channels
Channel positions : Front: L C R, Side: L R, LFE
Sampling rate : 48.0 KHz
Bit depth : 16 bits
Compression mode : Lossy
Stream size : 605 MiB (4%)
Title : AC3 5.1
Language : Spanish
Default : Yes
Forced : No
Audio #2
ID : 3
Format : AC-3
Format/Info : Audio Coding 3
Mode extension : CM (complete main)
Format settings, Endianness : Big
Codec ID : A_AC3
Duration : 2h 12mn
Bit rate mode : Constant
Bit rate : 640 Kbps
Channel(s) : 6 channels
Channel positions : Front: L C R, Side: L R, LFE
Sampling rate : 48.0 KHz
Bit depth : 16 bits
Compression mode : Lossy
Stream size : 605 MiB (4%)
Title : AC3 5.1
Language : English
Default : No
Forced : No
Audio #3
ID : 4
Format : DTS
Format/Info : Digital Theater Systems
Mode : 16
Format settings, Endianness : Big
Codec ID : A_DTS
Duration : 2h 12mn
Bit rate mode : Constant
Bit rate : 1 510 Kbps
Channel(s) : 6 channels
Channel positions : Front: L C R, Side: L R, LFE
Sampling rate : 48.0 KHz
Bit depth : 24 bits
Compression mode : Lossy
Stream size : 1.39 GiB (10%)
Title : DTS 5.1
Language : English
Default : No
Forced : No
Text #1
ID : 5
Format : VobSub
Muxing mode : zlib
Codec ID : S_VOBSUB
Codec ID/Info : The same subtitle format used on DVDs
Title : Forz 3D
Language : Spanish
Default : Yes
Forced : No
Text #2
ID : 6
Format : VobSub
Muxing mode : zlib
Codec ID : S_VOBSUB
Codec ID/Info : The same subtitle format used on DVDs
Title : Complet 3D
Language : Spanish
Default : No
Forced : No



Star Trek Into Darkness (2013) 3D H-SBS 1080p (Ing-Lat)
Star Trek Into Darkness (2013) 3D H-SBS 1080p (Ing-Lat)

Star Trek Into Darkness (2013) 3D H-SBS 1080p (Ing-Lat)
Buy Premium Account To Get High Speed Download
Para poder ver los links necesitas estar Registrado . O.. ya tienes cuenta? Logueate!

Puntos agregados!

0 Puntos

Votos: 0 - T! score: 0/10

17

Visitas

0

Favoritos

0

Medallas

0

Seguidores

0 Comentarios

Cargando comentarios espera un momento...
Para poder comentar necesitas estar Registrado. O.. ya tienes usuario? Logueate!
Tu comentario fue agreado correctamente