Pixels (2015) 3D H-SBS 1080p (Ing-Lat)

TV, Peliculas y series | Hace 26 días
0
0
0


Pixels (2015) 3D H-SBS 1080p (Ing-Lat)

Titulo original: Pixels
Ano: 2015
Duracion: 105 min.
Pais: Estados Unidos
Director: Chris Columbus
Guion: Tim Herlihy, Tim Dowling, Adam Sandler (Cortometraje: Patrick Jean)
Musica: Henry Jackman
Fotografia: Amir Mokri
Reparto: Adam Sandler, Michelle Monaghan, Peter Dinklage, Kevin James, Josh Gad, Sean Bean, Ashley Benson, Jane Krakowski, Brian Cox, Jared Sandler, Rob Archer, Lainie Kazan
Productora: Columbia Pictures / Happy Madison Productions / Plus One Rentals
Genero: Comedia. Ciencia ficcion | Extraterrestres. Videojuego. Fin del mundo. Remake
Sinopsis: Unos extraterrestres malinterpretan las imagenes de las maquinas recreativas como una declaracion de guerra y deciden atacar la Tierra, empleando dichos juegos como modelos para el asalto. El presidente de EEUU, Will Cooper (Kevin James), recurre entonces a su gran amigo de la infancia y campeon de las maquinitas de los anos 80, Sam Brenner (Adam Sandler), quien actualmente trabaja como instalador de sistemas de home cinema, para encabezar un equipo de expertos jugadores de su epoca (Dinklage y Gad). Su mision sera derrotar a los alienigenas y salvar al planeta.
http://www.imdb.com/title/tt2120120/
Trailer
https://youtu.be/nP6s8Fgv208


Cita:


General
Format : Matroska
Format version : Version 4 / Version 2
File size : 13.5 GiB
Duration : 1h 45mn
Overall bit rate mode : Variable
Overall bit rate : 18.2 Mbps
Encoded date : UTC 2015-10-13 15:54:44
Writing application : mkvmerge v7.1.0 (Good Love) 64bit built on Jul 27 2014 13:06:55
Writing library : libebml v1.3.0 + libmatroska v1.4.1
Video
ID : 1
Format : AVC
Format/Info : Advanced Video Codec
Format profile : High@L4.1
Format settings, CABAC : Yes
Format settings, ReFrames : 2 frames
Codec ID : V_MPEG4/ISO/AVC
Duration : 1h 45mn
Bit rate mode : Variable
Bit rate : 15.1 Mbps
Maximum bit rate : 40.0 Mbps
Width : 1 920 pixels
Height : 1 080 pixels
Display aspect ratio : 16:9
Frame rate mode : Constant
Frame rate : 23.976 fps
Color space : YUV
Chroma subsampling : 4:2:0
Bit depth : 8 bits
Scan type : Progressive
Bits/(Pixel*Frame) : 0.303
Stream size : 11.1 GiB (83%)
Language : English
Default : Yes
Forced : No
Color primaries : BT.709
Transfer characteristics : BT.709
Matrix coefficients : BT.709
Audio #1
ID : 2
Format : AC-3
Format/Info : Audio Coding 3
Mode extension : CM (complete main)
Format settings, Endianness : Big
Codec ID : A_AC3
Duration : 1h 45mn
Bit rate mode : Constant
Bit rate : 640 Kbps
Channel(s) : 6 channels
Channel positions : Front: L C R, Side: L R, LFE
Sampling rate : 48.0 KHz
Bit depth : 16 bits
Compression mode : Lossy
Stream size : 484 MiB (4%)
Title : AC3 5.1 Bluray
Language : Spanish
Default : Yes
Forced : No
Audio #2
ID : 3
Format : AC-3
Format/Info : Audio Coding 3
Mode extension : CM (complete main)
Format settings, Endianness : Big
Codec ID : A_AC3
Duration : 1h 45mn
Bit rate mode : Constant
Bit rate : 640 Kbps
Channel(s) : 6 channels
Channel positions : Front: L C R, Side: L R, LFE
Sampling rate : 48.0 KHz
Bit depth : 16 bits
Compression mode : Lossy
Stream size : 484 MiB (4%)
Title : AC3 5.1
Language : English
Default : No
Forced : No
Audio #3
ID : 4
Format : DTS
Format/Info : Digital Theater Systems
Mode : 16
Format settings, Endianness : Big
Codec ID : A_DTS
Duration : 1h 45mn
Bit rate mode : Constant
Bit rate : 1 509 Kbps
Channel(s) : 6 channels
Channel positions : Front: L C R, Side: L R, LFE
Sampling rate : 48.0 KHz
Bit depth : 24 bits
Compression mode : Lossy
Stream size : 1.12 GiB (8%)
Title : DTS 5.1
Language : English
Default : No
Forced : No
Text #1
ID : 5
Format : UTF-8
Codec ID : S_TEXT/UTF8
Codec ID/Info : UTF-8 Plain Text
Title : Forzados
Language : Spanish
Default : Yes
Forced : No
Text #2
ID : 6
Format : UTF-8
Codec ID : S_TEXT/UTF8
Codec ID/Info : UTF-8 Plain Text
Title : Completos
Language : Spanish
Default : No
Forced : No



Pixels (2015) 3D H-SBS 1080p (Ing-Lat)
Pixels (2015) 3D H-SBS 1080p (Ing-Lat)
Pixels (2015) 3D H-SBS 1080p (Ing-Lat)

Pixels (2015) 3D H-SBS 1080p (Ing-Lat)
Buy Premium Account To Get High Speed Download
Para poder ver los links necesitas estar Registrado . O.. ya tienes cuenta? Logueate!

Puntos agregados!

0 Puntos

Votos: 0 - T! score: 0/10

19

Visitas

0

Favoritos

0

Medallas

0

Seguidores

0 Comentarios

Cargando comentarios espera un momento...
Para poder comentar necesitas estar Registrado. O.. ya tienes usuario? Logueate!
Tu comentario fue agreado correctamente