Naked [2017] FullHD 1080p [Ing-Lat]

Música | Hace 17 días
0
0
0

Naked [2017]  FullHD 1080p  [Ing-Lat]

Titulo original: Naked
Ano: 2017
Duracion: 97 min.
Pais: Estados Unidos
Director: Michael Tiddes
Reparto: Marlon Wayans, Regina Hall, Dennis Haysbert, Loretta Devine, Dave Sheridan, Neil Brown Jr., Cory Hardrict, Megan Messmer, Kimberly Leemans, Judd Lormand, Jwaundace Candece, Jason Davis, Conor Brophy, Jesse Malinowski, Kevin Patrick Murphy, Nick Madrick
Productora: Wayans Alvarez Productions
Genero: Comedia | Bodas
Sinopsis: Cada vez que Rob Anderson esta a punto de casarse con la mujer de sus suenos, se despierta desnudo en el ascensor de un hotel reviviendo el dia de su boda.
https://www.imdb.com/title/tt6048930
Trailer
https://youtu.be/uo6_LAI_V38


Cita:


General
Format : Matroska
Format version : Version 4 / Version 2
File size : 4.81 GiB
Duration : 1 h 36 min
Overall bit rate : 7 105 kb/s
Movie name : Naked (2017) 1080p
Encoded date : UTC 2017-08-11 17:42:19
Writing application : mkvmerge v9.9.0 (Pick Up) 64bit
Writing library : libebml v1.3.4 + libmatroska v1.4.5
Video
ID : 1
Format : AVC
Format/Info : Advanced Video Codec
Format profile : High@L4.1
Format settings, CABAC : Yes
Format settings, ReFrames : 4 frames
Codec ID : V_MPEG4/ISO/AVC
Duration : 1 h 36 min
Bit rate : 6 527 kb/s
Width : 1 920 pixels
Height : 960 pixels
Display aspect ratio : 2.000
Frame rate mode : Constant
Frame rate : 23.976 (24000/1001) FPS
Color space : YUV
Chroma subsampling : 4:2:0
Bit depth : 8 bits
Scan type : Progressive
Bits/(Pixel*Frame) : 0.148
Stream size : 4.42 GiB (92%)
Title : Naked (2017) 1080p
Writing library : x264 core 152 r2851 ba24899
Language : English
Default : Yes
Forced : No
Audio #1
ID : 2
Format : E-AC-3
Format/Info : Enhanced Audio Coding 3
Format settings, Endianness : Big
Codec ID : A_EAC3
Duration : 1 h 36 min
Bit rate mode : Constant
Bit rate : 192 kb/s
Channel(s) : 6 channels
Channel positions : Front: L C R, Side: L R, LFE
Sampling rate : 48.0 kHz
Frame rate : 187.500 FPS (256 spf)
Compression mode : Lossy
Stream size : 133 MiB (3%)
Title : E-AC3 5.1 Capt
Language : Spanish
Default : Yes
Forced : No
Audio #2
ID : 3
Format : AC-3
Format/Info : Audio Coding 3
Mode extension : CM (complete main)
Format settings, Endianness : Big
Codec ID : A_AC3
Duration : 1 h 36 min
Bit rate mode : Constant
Bit rate : 384 kb/s
Channel(s) : 6 channels
Channel positions : Front: L C R, Side: L R, LFE
Sampling rate : 48.0 kHz
Frame rate : 31.250 FPS (1536 spf)
Bit depth : 16 bits
Compression mode : Lossy
Stream size : 266 MiB (5%)
Title : E-AC3 5.1
Language : English
Default : No
Forced : No
Text
ID : 4
Format : UTF-8
Codec ID : S_TEXT/UTF8
Codec ID/Info : UTF-8 Plain Text
Duration : 1 h 29 min
Bit rate : 63 b/s
Count of elements : 1439
Stream size : 41.6 KiB (0%)
Title : Subt_Compl
Language : Spanish
Default : No
Forced : No



Naked [2017]  FullHD 1080p  [Ing-Lat]
Naked [2017]  FullHD 1080p  [Ing-Lat]
Naked [2017]  FullHD 1080p  [Ing-Lat]
Naked [2017]  FullHD 1080p  [Ing-Lat]

Naked [2017]  FullHD 1080p  [Ing-Lat]

Para poder ver los links necesitas estar Registrado . O.. ya tienes cuenta? Logueate!

Puntos agregados!

0 Puntos

Votos: 0 - T! score: 0/10

17

Visitas

0

Favoritos

0

Medallas

0

Seguidores

0 Comentarios

Cargando comentarios espera un momento...
Para poder comentar necesitas estar Registrado. O.. ya tienes usuario? Logueate!
Tu comentario fue agreado correctamente