A Christmas Carol [2009] 3D H-SBS 1080p [Ing-Lat][Animacion]

TV, Peliculas y series | Hace 16 días
0
0
0



TITULO ORIGINAL: Disneys A Christmas Carol
ANO: 2009
DURACION: 95 min.
PAIS: USA
DIRECTOR: Robert Zemeckis
GUION: Robert Zemeckis (Historia: Charles Dickens)
REPARTO: Jim Carrey, Gary Oldman, Colin Firth, Robin Wright Penn, Cary Elwes, Bob Hoskins, Daryl Sabara, Fionnula Flanagan, Animation
PRODUCTORA: Walt Disney Pictures / ImageMovers
GENERO: Animacion. Fantastico. Drama. Infantil | Cine familiar. Navidad. 3-D
Sinopsis: Ebenezer Scrooge (Jim Carrey) es un personaje malhumorado y grunon que trata con desprecio y malos modales a su fiel empleado Bob Cratchit (Gary Oldman) y a su alegre sobrino (Colin Firth). Pero, cuando el espiritu de las Navidades pasadas, presentes y futuras lo arrastra a un viaje, durante el cual descubre verdades que siempre se ha negado a ver, el corazon del viejo avaro se ilumina y se da cuenta de que debe actuar inmediatamente para contrarrestar tantos anos de egoismo y rencor. Adaptacion del clasico de Charles Dickens, que usa la misma tecnica de animacion que "Polar Express" y "Beowulf".
http://www.imdb.es/title/tt1067106/
Trailer
https://youtu.be/7g2WRqeHku8


Cita:


General
Format : Matroska
Format version : Version 2
File size : 8.26 GiB
Duration : 1h 35mn
Overall bit rate : 12.3 Mbps
Encoded date : UTC 2013-02-11 03:53:55
Writing application : mkvmerge v5.7.0 (The Whirlwind) built on Jul 8 2012 20:08:51
Writing library : libebml v1.2.3 + libmatroska v1.3.0
Video
ID : 1
Format : AVC
Format/Info : Advanced Video Codec
Format profile : High@L4.0
Format settings, CABAC : Yes
Format settings, ReFrames : 4 frames
Codec ID : V_MPEG4/ISO/AVC
Duration : 1h 35mn
Bit rate : 10 000 Kbps
Width : 1 920 pixels
Height : 1 080 pixels
Display aspect ratio : 16:9
Frame rate mode : Constant
Frame rate : 23.976 fps
Color space : YUV
Chroma subsampling : 4:2:0
Bit depth : 8 bits
Scan type : Progressive
Bits/(Pixel*Frame) : 0.201
Stream size : 6.40 GiB (77%)
Writing library : x264 core 107 r1745 4785e8e
Language : English
Default : Yes
Forced : No
Audio #1
ID : 2
Format : AC-3
Format/Info : Audio Coding 3
Mode extension : CM (complete main)
Format settings, Endianness : Big
Codec ID : A_AC3
Duration : 1h 35mn
Bit rate mode : Constant
Bit rate : 384 Kbps
Channel(s) : 6 channels
Channel positions : Front: L C R, Side: L R, LFE
Sampling rate : 48.0 KHz
Bit depth : 16 bits
Compression mode : Lossy
Delay relative to video : 24ms
Stream size : 263 MiB (3%)
Title : AC3 5.1
Language : Spanish
Default : Yes
Forced : No
Audio #2
ID : 3
Format : AC-3
Format/Info : Audio Coding 3
Mode extension : CM (complete main)
Format settings, Endianness : Big
Codec ID : A_AC3
Duration : 1h 35mn
Bit rate mode : Constant
Bit rate : 640 Kbps
Channel(s) : 6 channels
Channel positions : Front: L C R, Side: L R, LFE
Sampling rate : 48.0 KHz
Bit depth : 16 bits
Compression mode : Lossy
Stream size : 439 MiB (5%)
Title : AC3 5.1
Language : English
Default : No
Forced : No
Audio #3
ID : 4
Format : DTS
Format/Info : Digital Theater Systems
Mode : 16
Format settings, Endianness : Big
Codec ID : A_DTS
Duration : 1h 35mn
Bit rate mode : Constant
Bit rate : 1 509 Kbps
Channel(s) : 6 channels
Channel positions : Front: L C R, Side: L R, LFE
Sampling rate : 48.0 KHz
Bit depth : 24 bits
Compression mode : Lossy
Stream size : 1.01 GiB (12%)
Title : DTS 5.1
Language : English
Default : No
Forced : No
Text #1
ID : 5
Format : UTF-8
Codec ID : S_TEXT/UTF8
Codec ID/Info : UTF-8 Plain Text
Language : Spanish
Default : No
Forced : No
Text #2
ID : 6
Format : UTF-8
Codec ID : S_TEXT/UTF8
Codec ID/Info : UTF-8 Plain Text
Language : English
Default : No
Forced : No










Uploadgig, Rapidgator, Nitroflare, Turbobit

**Todos los Enlaces Estan en Lupaste:

Para poder ver los links necesitas estar Registrado . O.. ya tienes cuenta? Logueate!

Puntos agregados!

0 Puntos

Votos: 0 - T! score: 0/10

15

Visitas

0

Favoritos

0

Medallas

0

Seguidores

0 Comentarios

Cargando comentarios espera un momento...
Para poder comentar necesitas estar Registrado. O.. ya tienes usuario? Logueate!
Tu comentario fue agreado correctamente