Minions [2015] 3D H-SBS 1080p [Ing-Lat]

TV, Peliculas y series | Más de 2 meses
0
0
0



Titulo original: Minions
Ano: 2015
Duracion: 91 min.
Pais: Estados Unidos
Director: Kyle Balda, Pierre Coffin
Guion: Brian Lynch (Personajes: Ken Daurio, Cinco Paul)
Musica: Heitor Pereira
Fotografia: Animation
Reparto: Animation
Productora: Illumination Entertainment
Genero: Animacion. Comedia | 3-D. Cine familiar. Anos 60. Spin-off. Precuela
Sinopsis: La historia de Los Minions se remonta al principio de los tiempos. Empezaron siendo organismos amarillos unicelulares que evolucionaron a traves del tiempo, poniendose siempre al servicio de los amos mas despreciables. Ante su incapacidad para mantener a esos amos � desde el T. Rex a Napoleon �, los Minions acaban encontrandose solos y caen en una profunda depresion. Sin embargo, uno de ellos, llamado Kevin, tiene un plan. Acompanado por el rebelde Stuart y el adorable Bob, emprende un emocionante viaje para conseguir una jefa a quien servir, la terrible Scarlet Overkill. Pasaran de la helada Antartida, a la ciudad de Nueva York en los anos sesenta, para acabar en el Londres de la misma epoca, donde deberan enfrentarse al mayor reto hasta la fecha: salvar a la raza Minion de la aniquilacion.
http://www.imdb.com/title/tt2293640/
Trailer
https://youtu.be/dCNTb4nwPrg


Cita:


General
Format : Matroska
Format version : Version 4 / Version 2
File size : 4.78 GiB
Duration : 1h 30mn
Overall bit rate : 7 519 Kbps
Encoded date : UTC 2015-10-24 17:36:53
Writing application : mkvmerge v7.1.0 (Good Love) 64bit built on Jul 27 2014 13:06:55
Writing library : libebml v1.3.0 + libmatroska v1.4.1
Video
ID : 1
Format : AVC
Format/Info : Advanced Video Codec
Format profile : High@L4.1
Format settings, CABAC : Yes
Format settings, ReFrames : 4 frames
Codec ID : V_MPEG4/ISO/AVC
Duration : 1h 30mn
Bit rate : 6 237 Kbps
Width : 1 920 pixels
Height : 1 040 pixels
Display aspect ratio : 1.85:1
Frame rate mode : Constant
Frame rate : 23.976 fps
Color space : YUV
Chroma subsampling : 4:2:0
Bit depth : 8 bits
Scan type : Progressive
Bits/(Pixel*Frame) : 0.130
Stream size : 3.87 GiB (81%)
Writing library : x264 core 148 r2638 7599210
Language : English
Default : Yes
Forced : No
Audio #1
ID : 2
Format : AC-3
Format/Info : Audio Coding 3
Mode extension : CM (complete main)
Format settings, Endianness : Big
Codec ID : A_AC3
Duration : 1h 30mn
Bit rate mode : Constant
Bit rate : 640 Kbps
Channel(s) : 6 channels
Channel positions : Front: L C R, Side: L R, LFE
Sampling rate : 48.0 KHz
Bit depth : 16 bits
Compression mode : Lossy
Stream size : 416 MiB (9%)
Title : AC3 5.1 Bluray
Language : Spanish
Default : Yes
Forced : No
Audio #2
ID : 3
Format : AC-3
Format/Info : Audio Coding 3
Mode extension : CM (complete main)
Format settings, Endianness : Big
Codec ID : A_AC3
Duration : 1h 30mn
Bit rate mode : Constant
Bit rate : 640 Kbps
Channel(s) : 6 channels
Channel positions : Front: L C R, Side: L R, LFE
Sampling rate : 48.0 KHz
Bit depth : 16 bits
Compression mode : Lossy
Stream size : 416 MiB (9%)
Title : AC3 5.1
Language : English
Default : No
Forced : No
Text
ID : 4
Format : UTF-8
Codec ID : S_TEXT/UTF8
Codec ID/Info : UTF-8 Plain Text
Language : Spanish
Default : No
Forced : No









Cita:


Para poder ver los links necesitas estar Registrado . O.. ya tienes cuenta? Logueate!

Para poder ver los links necesitas estar Registrado . O.. ya tienes cuenta? Logueate!

Para poder ver los links necesitas estar Registrado . O.. ya tienes cuenta? Logueate!

Para poder ver los links necesitas estar Registrado . O.. ya tienes cuenta? Logueate!

Para poder ver los links necesitas estar Registrado . O.. ya tienes cuenta? Logueate!

Para poder ver los links necesitas estar Registrado . O.. ya tienes cuenta? Logueate!


Puntos agregados!

0 Puntos

Votos: 0 - T! score: 0/10

32

Visitas

0

Favoritos

0

Medallas

0

Seguidores

0 Comentarios

Cargando comentarios espera un momento...
Para poder comentar necesitas estar Registrado. O.. ya tienes usuario? Logueate!
Tu comentario fue agreado correctamente